<?xml version="1.0" standalone="no"?>
<!DOCTYPE svg PUBLIC "-//W3C//DTD SVG 1.1//EN" "http://www.w3.org/Graphics/SVG/1.1/DTD/svg11.dtd" >
<svg xmlns="http://www.w3.org/2000/svg" xmlns:xlink="http://www.w3.org/1999/xlink" version="1.1">
<metadata></metadata>
<defs>
<font id="gotham_roundedmedium_italic" horiz-adv-x="1712" >
<font-face units-per-em="2048" ascent="1638" descent="-410" />
<missing-glyph horiz-adv-x="614" />
<glyph horiz-adv-x="0" />
<glyph horiz-adv-x="682" />
<glyph unicode=" "  horiz-adv-x="614" />
<glyph unicode="&#x09;" horiz-adv-x="614" />
<glyph unicode="&#xa0;" horiz-adv-x="614" />
<glyph unicode="!" horiz-adv-x="620" d="M53 127l8 35q14 60 57 95.5t105 35.5q64 0 100.5 -40.5t24.5 -96.5l-8 -35q-14 -61 -57 -96t-105 -35q-64 0 -100.5 40.5t-24.5 96.5zM229 526l156 828q8 38 33 62t59 24h137q35 0 51 -26.5t3 -63.5l-293 -844q-24 -64 -82 -64q-34 0 -52 22.5t-12 61.5z" />
<glyph unicode="&#x22;" horiz-adv-x="1009" d="M223 887l129 442q15 49 48 80t83 31h68q55 0 67 -40.5t-16 -84.5l-240 -443q-32 -63 -88 -63q-32 0 -46 22.5t-5 55.5zM682 887l129 442q13 49 47 80t84 31h68q37 0 54.5 -19.5t15 -47t-18.5 -58.5l-242 -443q-12 -27 -35.5 -45t-50.5 -18q-32 0 -47 23t-4 55z" />
<glyph unicode="#" horiz-adv-x="1406" d="M55 436q0 43 31.5 75t75.5 32h147l125 356h-100q-43 0 -75 32t-32 75t32 74.5t75 31.5h174l86 244q13 40 46 64t73 24q51 0 78 -34.5t12 -80.5l-76 -217h320l86 244q13 39 47.5 63.5t74.5 24.5q51 0 77 -34.5t9 -80.5l-75 -217h75q43 0 75 -31t32 -75q0 -43 -32 -75 t-75 -32h-149l-125 -356h98q44 0 75.5 -31.5t31.5 -75.5q0 -43 -31.5 -74.5t-75.5 -31.5h-172l-88 -252q-12 -38 -45.5 -63t-73.5 -25q-52 0 -79.5 34.5t-10.5 79.5l78 226h-319l-88 -252q-13 -37 -45.5 -62.5t-75.5 -25.5q-51 0 -78.5 33t-9.5 81l78 226h-74 q-44 0 -75.5 31t-31.5 75zM528 543h320l125 356h-322z" />
<glyph unicode="$" horiz-adv-x="1292" d="M20 279q0 51 35 84.5t88 33.5q43 0 84 -32q106 -100 256 -134l115 400q-87 33 -145 64t-106.5 74.5t-71.5 101.5t-23 133q0 121 70.5 219.5t193 154.5t272.5 56q29 0 39 -2l13 43q29 88 100 88q45 0 66 -30t8 -83l-13 -41q132 -28 244 -115q31 -22 46.5 -44t15.5 -56 q0 -51 -36 -85t-89 -34q-36 0 -84 31q-76 61 -168 86l-109 -381q171 -63 254.5 -148t83.5 -227q0 -127 -73.5 -227t-201.5 -154.5t-286 -54.5h-12l-35 -123q-14 -42 -39.5 -66t-60.5 -24q-45 0 -66 31t-6 84l33 116q-213 43 -338 158q-54 43 -54 103zM510 1030 q0 -54 36 -89.5t126 -72.5l98 346q-119 3 -189.5 -50.5t-70.5 -133.5zM643 219q118 3 187 54.5t69 138.5q0 53 -33.5 90t-117.5 73z" />
<glyph unicode="%" horiz-adv-x="1765" d="M178 1018q0 108 49.5 206.5t142 162t203.5 63.5q136 0 221 -86.5t85 -222.5q0 -108 -50 -206.5t-142.5 -162t-203.5 -63.5q-137 0 -221 86.5t-84 222.5zM221 63q0 37 31 68l1233 1278q37 37 76 37q33 0 55 -21.5t22 -54.5q0 -34 -30 -67l-1233 -1276q-37 -37 -76 -37 q-33 0 -55.5 20.5t-22.5 52.5zM348 1026q0 -77 39.5 -121.5t106.5 -44.5q61 0 111 42t76 104t26 127q0 77 -38.5 121t-107.5 44q-60 0 -110 -42t-76.5 -104t-26.5 -126zM981 293q0 109 49.5 207.5t141.5 161.5t204 63q137 0 221 -86t84 -221q0 -109 -49.5 -208t-142 -162.5 t-203.5 -63.5q-135 0 -220 87t-85 222zM1151 301q0 -76 39 -121t106 -45q61 0 111.5 42.5t77 104.5t26.5 126q0 77 -39 122t-106 45q-91 0 -153 -86.5t-62 -187.5z" />
<glyph unicode="&#x26;" horiz-adv-x="1421" d="M51 356q0 73 26 139.5t78 126.5t136.5 109.5t195.5 83.5q-81 137 -81 256q0 161 121.5 274t310.5 113q168 0 272 -92t104 -238q0 -267 -407 -395l199 -274q83 96 145 186q43 60 92 60q39 0 66.5 -23.5t27.5 -60.5q0 -36 -20 -68q-94 -141 -191 -246l95 -133 q39 -49 39 -86q0 -47 -31 -77.5t-78 -30.5q-56 0 -92 47l-96 133q-225 -180 -469 -180q-195 0 -319 100.5t-124 275.5zM293 373q0 -84 60.5 -134.5t168.5 -50.5q151 0 322 129l-254 351q-149 -47 -223 -125.5t-74 -169.5zM629 1069q0 -84 69 -190q162 51 225.5 107t63.5 128 q0 60 -43.5 103t-118.5 43q-84 0 -140 -56.5t-56 -134.5z" />
<glyph unicode="'" horiz-adv-x="550" d="M223 887l129 442q15 49 48 80t83 31h68q55 0 67 -40.5t-16 -84.5l-240 -443q-32 -63 -88 -63q-32 0 -46 22.5t-5 55.5z" />
<glyph unicode="(" horiz-adv-x="903" d="M143 434q0 316 191.5 576t552.5 428q28 14 61 14q45 0 74 -28.5t29 -73.5q0 -64 -70 -101q-288 -148 -436 -357t-148 -450q0 -152 58.5 -276.5t167.5 -251.5q30 -38 30 -84q0 -45 -29.5 -74.5t-78.5 -29.5q-56 0 -88 32q-314 297 -314 676z" />
<glyph unicode=")" horiz-adv-x="903" d="M-123 -172q0 65 70 102q288 146 435.5 356t147.5 451q0 151 -58.5 276t-166.5 251q-31 40 -31 84q0 45 30 74.5t79 29.5q55 0 88 -33q313 -296 313 -674q0 -317 -191 -577t-552 -428q-28 -14 -61 -14q-45 0 -74 28.5t-29 73.5z" />
<glyph unicode="*" horiz-adv-x="880" d="M238 1032q-2 28 15.5 47.5t47.5 22.5l195 31l-152 120q-35 27 -35 60q0 27 19 47t49 20q36 0 59 -30l121 -154l29 178q9 68 67 68q40 0 56.5 -27t-0.5 -67l-68 -174l170 65q27 10 51 10q26 0 42 -17t18 -44q0 -62 -64 -72l-194 -29l149 -118q37 -27 37 -62 q0 -27 -19.5 -47t-48.5 -20q-34 0 -59 32l-121 152l-29 -180q-3 -32 -21 -49t-46 -17q-35 0 -52.5 28.5t-2.5 63.5l67 177l-170 -66q-27 -10 -47 -10q-25 0 -43.5 17t-19.5 44z" />
<glyph unicode="+" horiz-adv-x="1298" d="M176 721q0 46 34 79.5t81 33.5h319l74 278q17 58 52.5 90.5t80.5 32.5q60 0 87 -41t7 -113l-65 -247h258q47 0 81 -33t34 -80q0 -46 -34 -79.5t-81 -33.5h-320l-73 -276q-17 -59 -52.5 -92t-80.5 -33q-60 0 -87.5 40.5t-7.5 112.5l68 248h-260q-47 0 -81 33t-34 80z" />
<glyph unicode="," horiz-adv-x="600" d="M-121 -242q0 45 58 58q175 47 192 184q-101 26 -82 133l8 27q12 60 54 96.5t102 36.5q72 0 104 -48.5t15 -131.5l-8 -35q-39 -177 -162 -279q-46 -40 -105 -65.5t-112 -28.5q-32 -3 -48 12.5t-16 40.5z" />
<glyph unicode="-" horiz-adv-x="841" d="M131 627q0 51 35.5 87t85.5 36h385q51 0 87 -36t36 -87q0 -50 -36 -85.5t-87 -35.5h-385q-50 0 -85.5 36t-35.5 85z" />
<glyph unicode="." horiz-adv-x="600" d="M45 127l8 35q14 60 57 95.5t105 35.5q64 0 100.5 -40.5t24.5 -96.5l-8 -35q-14 -61 -57 -96t-105 -35q-64 0 -100.5 40.5t-24.5 96.5z" />
<glyph unicode="/" horiz-adv-x="1067" d="M-184 -190q0 39 37 90l1255 1679q49 68 111 68q40 0 63 -23t23 -61q0 -6 -0.5 -11.5t-1.5 -10t-3 -10.5l-3 -9t-4.5 -9t-4.5 -8.5t-5.5 -8.5t-5.5 -7.5t-6 -8t-5 -7.5l-1256 -1680q-48 -67 -110 -67q-39 0 -61.5 22.5t-22.5 61.5z" />
<glyph unicode="0" horiz-adv-x="1482" d="M139 553q0 108 24 217.5t69 210t112.5 187.5t149.5 151.5t186.5 101.5t218.5 37q246 0 390.5 -158.5t144.5 -418.5q0 -130 -33.5 -260t-99.5 -246t-156 -205.5t-211.5 -142t-257.5 -52.5q-246 0 -391.5 159t-145.5 419zM399 553q0 -162 78 -256t217 -94q101 0 192.5 62 t153.5 160t98 218.5t36 237.5q0 162 -78 256t-217 94q-101 0 -192 -62t-153 -160t-98.5 -218.5t-36.5 -237.5z" />
<glyph unicode="1" horiz-adv-x="827" d="M217 1239q0 39 24.5 70t65.5 43l262 78q77 22 129 22h2q57 0 84.5 -38.5t12.5 -96.5l-324 -1204q-15 -58 -51.5 -90.5t-87.5 -32.5q-63 0 -92 43.5t-9 118.5l279 1030l-158 -43q-24 -4 -37 -4q-41 0 -70.5 28t-29.5 76z" />
<glyph unicode="2" horiz-adv-x="1241" d="M-33 111q0 68 66 116l731 527q114 82 167.5 151.5t53.5 145.5q0 82 -58 129t-159 47q-160 0 -303 -131q-43 -39 -88 -39q-47 0 -80 33.5t-33 80.5q0 51 43 91q212 192 471 192q210 0 338.5 -105.5t128.5 -273.5q0 -130 -74 -236.5t-251 -232.5l-533 -385h541q46 0 78 -32 t32 -78t-32 -78.5t-78 -32.5h-826q-61 0 -98 28.5t-37 82.5z" />
<glyph unicode="3" horiz-adv-x="1239" d="M6 252q0 50 36 85.5t85 35.5q47 0 84 -37q64 -69 129.5 -101t171.5 -32q137 0 229.5 73t92.5 175q0 98 -84.5 149t-233.5 51h-12q-44 0 -70 25t-26 69q0 49 55 93l446 376h-481q-44 0 -76.5 32.5t-32.5 76.5q0 46 32.5 78.5t76.5 32.5h737q57 0 91 -26.5t34 -74.5 q0 -42 -20 -69t-64 -62l-456 -375q156 -26 248 -114t92 -240q0 -139 -78 -253.5t-213.5 -179.5t-298.5 -65q-297 0 -453 185q-41 47 -41 92z" />
<glyph unicode="4" horiz-adv-x="1341" d="M33 428q0 73 67 137l881 807q89 82 182 82q61 0 93.5 -36.5t15.5 -94.5l-213 -795h84q43 0 73.5 -30t30.5 -74q0 -43 -30.5 -72.5t-73.5 -29.5h-139l-56 -209q-15 -58 -51 -90.5t-84 -32.5q-60 0 -87.5 44t-6.5 118l45 170h-606q-54 0 -89.5 28t-35.5 78zM362 528h457 l154 572z" />
<glyph unicode="5" horiz-adv-x="1243" d="M29 244q0 50 33.5 84t82.5 34q46 0 91 -36q121 -121 299 -121q149 0 245.5 81.5t96.5 194.5q0 98 -75.5 159.5t-205.5 61.5q-38 0 -74 -7t-77 -19.5t-58 -16.5q-57 -3 -111 39q-57 45 -34 119l172 518q34 99 123 99h614q46 0 79.5 -33.5t33.5 -79.5t-33.5 -78.5 t-79.5 -32.5h-541l-108 -329q91 32 184 32q203 0 327 -110.5t124 -296.5q0 -104 -45 -200t-124.5 -169t-197.5 -116.5t-256 -43.5q-122 0 -235 44t-199 120q-51 47 -51 103z" />
<glyph unicode="6" horiz-adv-x="1314" d="M135 508q0 214 75 410t208 329q214 211 502 211q200 0 354 -108q57 -34 57 -105q0 -49 -33.5 -83t-83.5 -34q-9 0 -18.5 1.5t-18.5 5t-14.5 6t-15.5 8t-12 6.5q-104 76 -236 76q-179 0 -305 -129q-63 -63 -111.5 -153.5t-66.5 -186.5q55 66 153.5 112t210.5 46 q193 0 318 -112t125 -294q0 -104 -45 -202.5t-121.5 -172.5t-185 -119t-228.5 -45q-110 0 -204.5 34t-157.5 97q-146 146 -146 402zM381 426q0 -100 65 -162q74 -74 199 -74q138 0 230 88.5t92 206.5q0 98 -69 163t-187 65q-145 0 -237.5 -85t-92.5 -202z" />
<glyph unicode="7" horiz-adv-x="1228" d="M158 86q0 47 41 104l776 1022h-578q-46 0 -79 32.5t-33 78.5t33 78.5t79 32.5h799q56 0 85.5 -24.5t29.5 -68.5q0 -61 -58 -133l-852 -1138q-62 -80 -137 -80q-50 0 -78 25t-28 71z" />
<glyph unicode="8" horiz-adv-x="1343" d="M70 377q0 158 107 257.5t282 137.5q-87 40 -138 116t-51 169q0 75 36.5 145.5t102.5 127t168 90.5t224 34q219 0 358 -106.5t139 -272.5q0 -137 -89.5 -233t-239.5 -129q102 -39 165.5 -120t63.5 -192q0 -173 -163.5 -297t-422.5 -124q-150 0 -273.5 50t-196 141.5 t-72.5 205.5zM319 397q-2 -92 83.5 -151.5t222.5 -59.5q141 0 232.5 63.5t92.5 164.5q0 91 -85 152t-222 61q-143 0 -233.5 -66.5t-90.5 -163.5zM508 1030q-2 -86 72 -143.5t192 -57.5q127 0 207 64t80 154q2 86 -71 142t-197 56q-121 0 -201 -61t-82 -154z" />
<glyph unicode="9" horiz-adv-x="1314" d="M66 203q0 49 33 82.5t83 33.5q33 0 80 -28q117 -90 250 -90q175 0 305 133q131 128 174 323q-57 -66 -153.5 -112.5t-210.5 -46.5q-194 0 -318.5 112t-124.5 299q1 149 77.5 275t210 200t294.5 74q106 0 203.5 -34t158.5 -97q146 -143 146 -422q0 -206 -76.5 -395.5 t-210.5 -323.5q-208 -211 -489 -211q-212 0 -367 119q-65 42 -65 109zM440 938q0 -102 70 -166.5t192 -64.5q141 0 233.5 88t92.5 209q0 100 -65 165q-74 74 -199 74q-142 0 -233 -89.5t-91 -215.5z" />
<glyph unicode=":" horiz-adv-x="606" d="M47 127l8 35q14 60 57 95.5t105 35.5q64 0 100.5 -40.5t24.5 -96.5l-8 -35q-14 -61 -57 -96t-105 -35q-64 0 -100.5 40.5t-24.5 96.5zM262 928l8 35q14 60 57 95.5t105 35.5q64 0 100.5 -41t24.5 -97l-8 -34q-14 -61 -57 -96t-105 -35q-64 0 -100.5 40.5t-24.5 96.5z" />
<glyph unicode=";" horiz-adv-x="606" d="M-117 -242q0 45 56 58q174 46 192 184q-101 27 -80 133l6 27q14 60 56 96.5t100 36.5q72 0 105 -48.5t14 -131.5l-8 -35q-39 -176 -160 -279q-48 -40 -106.5 -65.5t-112.5 -28.5q-32 -3 -47 12t-15 41zM262 928l8 35q14 60 57 95.5t105 35.5q64 0 100.5 -41t24.5 -97 l-8 -34q-14 -61 -57 -96t-105 -35q-64 0 -100.5 40.5t-24.5 96.5z" />
<glyph unicode="&#x3c;" horiz-adv-x="1298" d="M172 694v8q0 109 115 158l833 354q38 17 70 17q41 0 67.5 -24.5t26.5 -65.5q0 -75 -72 -105l-786 -325l569 -303q38 -20 53 -43.5t15 -59.5q0 -46 -31 -79t-78 -33q-28 0 -65 16l-608 336q-53 30 -81 64t-28 85z" />
<glyph unicode="=" horiz-adv-x="1298" d="M141 465q0 47 34 81t81 34h750q47 0 80.5 -34t33.5 -81t-33.5 -81t-80.5 -34h-750q-47 0 -81 34t-34 81zM279 977q0 46 33.5 80.5t80.5 34.5h750q47 0 80.5 -34.5t33.5 -80.5q0 -47 -33.5 -81t-80.5 -34h-750q-47 0 -80.5 34t-33.5 81z" />
<glyph unicode="&#x3e;" horiz-adv-x="1298" d="M106 301q0 74 70 105l787 325l-568 303q-37 20 -52 43.5t-15 59.5q0 47 30 79.5t78 32.5q27 0 64 -16l610 -338q52 -28 80.5 -62t28.5 -85v-11q0 -106 -115 -155l-834 -355q-40 -18 -69 -18q-40 0 -67.5 25.5t-27.5 66.5z" />
<glyph unicode="?" horiz-adv-x="1107" d="M211 1202q0 62 53 103q186 147 430 147q202 0 322.5 -107t120.5 -262q0 -184 -139.5 -299.5t-391.5 -152.5l-39 -109q-14 -36 -41 -58t-61 -22h-12q-35 0 -54.5 24t-15.5 64l29 187q4 40 29 60t77 28q160 21 257 85t97 165q0 80 -55 124t-155 44q-129 0 -263 -90 q-56 -31 -88 -31q-43 0 -71.5 30t-28.5 70zM227 127l9 35q14 60 56.5 95.5t104.5 35.5q64 0 100.5 -40.5t24.5 -96.5l-8 -35q-14 -61 -57 -96t-105 -35q-64 0 -100.5 40.5t-24.5 96.5z" />
<glyph unicode="@" horiz-adv-x="2007" d="M119 475q0 195 78.5 376.5t211.5 315.5t319.5 214.5t391.5 80.5q187 0 343 -57t259 -154.5t160 -226t57 -272.5q0 -151 -40.5 -271.5t-107.5 -193.5t-148 -111.5t-168 -38.5q-104 0 -176 46.5t-99 125.5q-157 -174 -344 -174q-139 0 -233.5 92.5t-94.5 251.5 q0 117 44.5 222.5t116 178.5t163.5 115.5t186 42.5q196 0 283 -166l16 54q33 100 113 100q47 0 73.5 -37t8.5 -90l-137 -436q-33 -107 2.5 -171.5t124.5 -64.5q55 0 113 34.5t108.5 97.5t82.5 166t32 227q0 129 -51.5 244t-144.5 202t-233.5 137.5t-308.5 50.5 q-188 0 -359.5 -74.5t-293.5 -198.5t-194 -291.5t-72 -346.5q0 -211 97 -375t273 -255t404 -91q202 0 393 80q9 6 25 6q15 0 26 -11t11 -26q0 -21 -23 -32q-201 -93 -432 -93q-251 0 -446 101t-302.5 282.5t-107.5 413.5zM745 506q0 -91 51.5 -144t137.5 -53 q122 0 224 107.5t102 247.5q0 89 -56.5 143.5t-148.5 54.5q-122 0 -216 -105t-94 -251z" />
<glyph unicode="A" horiz-adv-x="1552" d="M-27 90q0 43 31 82l848 1180q71 102 178 102h6q117 0 140 -121l210 -1157q9 -52 9 -65q0 -50 -36.5 -85.5t-92.5 -35.5q-51 0 -84 28.5t-39 73.5l-43 254h-699l-194 -276q-59 -80 -129 -80q-47 0 -76 27t-29 73zM557 569h506l-98 580z" />
<glyph unicode="B" horiz-adv-x="1468" d="M82 160l307 1147q17 60 54.5 93.5t88.5 33.5h441q228 0 348.5 -95t120.5 -249q0 -143 -90 -238t-238 -127q223 -86 223 -293q0 -194 -162.5 -313t-447.5 -119h-543q-62 0 -92 44q-18 26 -18 62q0 25 8 54zM346 223h416q150 0 236.5 59.5t86.5 163.5q0 81 -66.5 125.5 t-184.5 44.5h-383zM510 829h354q152 0 238 57.5t86 162.5q0 77 -60 119t-178 42h-340z" />
<glyph unicode="C" horiz-adv-x="1495" d="M154 586q0 170 68.5 330t184 279t276.5 191t337 72q300 0 479 -201q51 -47 51 -106q0 -53 -37 -91t-92 -38q-59 0 -90 39q-66 81 -143 123.5t-197 42.5q-113 0 -219 -52t-184 -137.5t-125 -201.5t-47 -240q0 -175 109 -281t282 -106q100 0 170 28t156 93q49 30 86 30 q49 0 81.5 -34t32.5 -84q0 -59 -45 -95q-91 -79 -216 -125.5t-271 -46.5q-185 0 -331 73t-231 213.5t-85 324.5z" />
<glyph unicode="D" horiz-adv-x="1587" d="M82 160l307 1147q17 60 54.5 93.5t88.5 33.5h281q374 0 561 -187q156 -156 156 -418q0 -161 -59.5 -304.5t-172.5 -256.5q-268 -268 -745 -268h-369q-62 0 -92 44q-18 26 -18 62q0 25 8 54zM352 229h232q159 0 294 50t230 145q160 160 160 395q0 163 -101 264 q-121 121 -372 121h-179z" />
<glyph unicode="E" horiz-adv-x="1351" d="M82 160l307 1147q17 60 54.5 93.5t88.5 33.5h811q46 0 79.5 -33.5t33.5 -79.5q0 -47 -33.5 -80t-79.5 -33h-729l-100 -374h576q47 0 80.5 -33t33.5 -80q0 -46 -33.5 -78.5t-80.5 -32.5h-635l-105 -385h680q46 0 79.5 -33t33.5 -79q0 -47 -33.5 -80t-79.5 -33h-846 q-62 0 -92 44q-18 26 -18 62q0 25 8 54z" />
<glyph unicode="F" horiz-adv-x="1353" d="M80 147l309 1160q17 60 54.5 93.5t88.5 33.5h824q47 0 80.5 -34t33.5 -81t-33.5 -81t-80.5 -34h-742l-104 -391h586q49 0 82.5 -33.5t33.5 -81.5t-33.5 -81t-82.5 -33h-647l-125 -469q-17 -59 -55 -92t-87 -33q-63 0 -93 42q-18 25 -18 61q0 24 9 54z" />
<glyph unicode="G" horiz-adv-x="1601" d="M152 592q0 132 43 260.5t123.5 237t188 191.5t246 130t287.5 47q170 0 297 -49.5t201 -126.5q49 -45 49 -102q0 -51 -35.5 -87t-87.5 -36q-50 0 -82 28q-74 69 -156 105.5t-204 36.5q-126 0 -240 -52.5t-193.5 -138.5t-126 -200.5t-46.5 -235.5q0 -184 114.5 -288.5 t294.5 -104.5q169 0 303 74l89 301h-252q-46 0 -78.5 31.5t-32.5 76.5q0 46 32.5 78.5t78.5 32.5h407q64 0 94 -45q17 -26 17 -62q0 -24 -8 -53l-123 -430q-12 -47 -36.5 -79t-68.5 -56q-79 -44 -193 -72.5t-245 -28.5q-128 0 -244.5 39.5t-209.5 114.5t-148 194.5 t-55 268.5z" />
<glyph unicode="H" horiz-adv-x="1548" d="M80 152l313 1169q17 58 54.5 90.5t87.5 32.5q63 0 93 -44q18 -26 17 -63q0 -25 -8 -55l-119 -444h674l129 483q15 58 52 90.5t87 32.5q64 0 94 -44q18 -26 18 -62q0 -25 -9 -56l-314 -1169q-17 -58 -54 -90.5t-87 -32.5q-62 0 -92 44q-18 26 -18 63q0 25 8 55l122 452 h-673l-133 -491q-15 -58 -52.5 -90.5t-87.5 -32.5q-64 0 -94 44q-17 26 -17 62q0 25 9 56z" />
<glyph unicode="I" horiz-adv-x="649" d="M94 152l314 1169q17 58 54 90.5t87 32.5q63 0 93 -44q18 -26 17 -63q0 -25 -8 -55l-315 -1169q-15 -58 -52 -90.5t-87 -32.5q-64 0 -94 44q-18 26 -18 62q0 26 9 56z" />
<glyph unicode="J" horiz-adv-x="1155" d="M-29 248q0 51 34.5 86t84.5 35q48 0 92 -41q78 -115 219 -115q129 0 217 88q41 41 71.5 106.5t64.5 192.5l192 721q17 58 54 90.5t87 32.5q63 0 93 -44q18 -26 18 -63q0 -25 -8 -55l-199 -739q-42 -158 -86.5 -250t-116.5 -166q-150 -147 -399 -147q-112 0 -209.5 44.5 t-165.5 129.5q-43 43 -43 94z" />
<glyph unicode="K" horiz-adv-x="1470" d="M80 152l313 1169q17 58 54.5 90.5t87.5 32.5q63 0 93 -44q18 -26 17 -63q0 -25 -8 -55l-154 -571l830 686q54 47 104 47q53 0 84 -32t31 -81q0 -58 -45 -94l-533 -432l295 -619q21 -46 21 -84q0 -50 -37.5 -81t-87.5 -31q-88 0 -129 88l-268 586l-355 -283l-71 -268 q-15 -58 -52.5 -90.5t-87.5 -32.5q-64 0 -94 44q-17 26 -17 62q0 25 9 56z" />
<glyph unicode="L" horiz-adv-x="1265" d="M82 160l311 1161q17 58 54.5 90.5t87.5 32.5q63 0 93 -44q18 -26 17 -63q0 -25 -8 -55l-283 -1053h619q47 0 80.5 -33.5t33.5 -80.5q0 -49 -33 -82t-81 -33h-789q-62 0 -92 44q-18 26 -18 62q0 25 8 54z" />
<glyph unicode="M" horiz-adv-x="1777" d="M80 152l311 1159q37 131 144 131h14q88 0 129 -103l252 -645l583 666q73 82 156 82h21q64 0 93 -44q17 -26 17 -64q0 -26 -8 -56l-313 -1165q-15 -58 -53.5 -90.5t-90.5 -32.5q-62 0 -92 44q-18 26 -18 64q0 25 8 54l219 819l-465 -496q-70 -76 -135 -76 q-40 0 -65.5 21.5t-43.5 68.5l-192 482l-229 -856q-15 -59 -52.5 -92t-87.5 -33q-64 0 -94 44q-17 26 -17 62q0 25 9 56z" />
<glyph unicode="N" horiz-adv-x="1609" d="M80 152l311 1163q37 127 150 127h12q101 0 149 -105l441 -917l243 901q15 58 52 90.5t88 32.5q64 0 92 -44q17 -26 16 -62q0 -26 -8 -56l-317 -1173q-29 -117 -133 -117h-5q-56 0 -88 23.5t-55 72.5l-461 954l-250 -929q-15 -58 -51 -90.5t-86 -32.5q-63 0 -92 44 q-17 25 -17 61q0 25 9 57z" />
<glyph unicode="O" d="M156 604q0 129 40 255t116.5 233.5t179 189.5t236 129t278.5 47q142 0 263.5 -48.5t204.5 -132.5t130 -200t47 -248q0 -162 -64 -316.5t-174.5 -273.5t-271.5 -191.5t-342 -72.5q-142 0 -262.5 48.5t-203.5 132.5t-130 200t-47 248zM418 618q0 -182 109.5 -296.5 t297.5 -114.5q120 0 227.5 54t180 140.5t114.5 195t42 218.5q0 181 -110 296.5t-298 115.5q-120 0 -227 -54t-179.5 -140.5t-114.5 -195.5t-42 -219z" />
<glyph unicode="P" horiz-adv-x="1380" d="M80 152l309 1155q17 60 54.5 93.5t88.5 33.5h345q295 0 434 -142q106 -106 106 -282q0 -127 -52.5 -230.5t-145.5 -172t-221.5 -105.5t-280.5 -37h-299l-96 -352q-15 -58 -52.5 -90.5t-87.5 -32.5q-64 0 -94 44q-17 26 -17 62q0 25 9 56zM477 688h254q196 0 310 79.5 t114 221.5q0 86 -55 141q-74 74 -232 74h-254z" />
<glyph unicode="Q" d="M156 604q0 129 40 255t116.5 233.5t179 189.5t236 129t278.5 47q142 0 263.5 -48.5t204.5 -132.5t130 -200t47 -248q0 -170 -68.5 -330t-191.5 -280l53 -61q41 -47 41 -99q0 -51 -33.5 -84.5t-85.5 -33.5q-69 0 -100 55l-66 84q-186 -105 -401 -105q-142 0 -262.5 48.5 t-203.5 132.5t-130 200t-47 248zM418 618q0 -182 109.5 -296.5t297.5 -114.5q130 0 244 65l-123 150q-1 2 -8.5 12t-9.5 13.5t-8 13t-8 15.5t-5.5 14.5t-4.5 17.5t-1 18q0 51 35.5 87t87.5 36q60 0 94 -51l127 -174q68 82 106 184.5t38 206.5q0 181 -110 296.5t-298 115.5 q-120 0 -227 -54t-179.5 -140.5t-114.5 -195.5t-42 -219z" />
<glyph unicode="R" horiz-adv-x="1480" d="M80 152l309 1155q17 60 54.5 93.5t88.5 33.5h412q297 0 434 -140q105 -105 105 -270q0 -200 -131 -328q-117 -120 -344 -170l202 -338q29 -42 29 -84q0 -53 -37 -83.5t-86 -30.5q-94 0 -143 82l-248 428h-299l-104 -387q-15 -58 -52.5 -90.5t-87.5 -32.5q-64 0 -94 44 q-17 26 -17 62q0 25 9 56zM487 723h324q233 0 338 108q72 72 72 173q0 76 -52 131q-72 69 -239 69h-314z" />
<glyph unicode="S" horiz-adv-x="1304" d="M25 268q0 55 34 91t88 36q47 0 84 -33q91 -85 179.5 -122t210.5 -37q121 0 198.5 54.5t77.5 143.5q0 65 -55.5 111t-208.5 106q-71 28 -123.5 55t-100.5 61.5t-78.5 73t-48.5 88.5t-18 108q0 132 73.5 235.5t199 159t278.5 55.5q261 0 445 -141q57 -43 57 -107 q0 -52 -36 -87.5t-87 -35.5q-47 0 -74 27q-74 62 -150.5 91.5t-172.5 29.5q-121 0 -194 -56.5t-73 -132.5q0 -67 58.5 -111t220.5 -108q88 -34 149 -68.5t110 -80t73 -104t24 -132.5q0 -137 -77 -242.5t-203.5 -160.5t-278.5 -55t-291.5 44.5t-240.5 139.5q-49 42 -49 104z " />
<glyph unicode="T" horiz-adv-x="1267" d="M246 1317q0 47 34.5 82t81.5 35h951q47 0 82 -35t35 -82t-35 -82t-82 -35h-381l-293 -1087q-15 -58 -52 -90.5t-87 -32.5q-64 0 -94 44q-18 26 -18 62q0 25 9 56l283 1048h-318q-47 0 -81.5 35t-34.5 82z" />
<glyph unicode="U" horiz-adv-x="1560" d="M176 451q0 98 33 227l170 643q17 58 54 90.5t87 32.5q63 0 93 -44q18 -26 18 -63q0 -25 -8 -55l-172 -639q-21 -99 -21 -158q0 -124 78 -199t223 -75q162 0 268 106q108 108 158 301l189 703q15 58 53 90.5t88 32.5q63 0 93 -44q18 -26 17 -63q0 -25 -8 -55l-190 -702 q-73 -274 -223 -424q-179 -179 -469 -179q-250 0 -390.5 127t-140.5 347z" />
<glyph unicode="V" horiz-adv-x="1476" d="M268 1329q0 50 37 82.5t96 32.5t93.5 -30.5t40.5 -86.5l131 -989l688 1024q51 82 133 82q50 0 81 -23.5t31 -68.5q0 -44 -24 -78l-819 -1190q-74 -104 -170 -104h-11q-53 0 -82 28t-38 86l-181 1174q-6 27 -6 61z" />
<glyph unicode="W" horiz-adv-x="2248" d="M274 1327q0 50 37.5 83.5t94.5 33.5q56 0 89.5 -28t34.5 -79l70 -966l582 979q28 49 61.5 73.5t81.5 24.5h14q52 0 81 -26t32 -74l64 -977l598 989q51 84 137 84q52 0 84 -28t32 -75q0 -29 -22 -69l-746 -1188q-62 -104 -167 -104h-11q-110 0 -116 112l-68 916l-561 -924 q-65 -104 -164 -104h-12q-52 0 -82 29t-35 83l-104 1176q-5 40 -5 59z" />
<glyph unicode="X" horiz-adv-x="1429" d="M16 100q0 54 50 101l548 542l-264 484q-31 60 -31 96q0 51 36.5 86t90.5 35q87 0 129 -88l228 -445l457 465q34 34 62.5 51t66.5 17q45 0 76.5 -30t31.5 -79q0 -53 -45 -98l-530 -524l272 -506q33 -57 33 -96q0 -51 -36.5 -86t-90.5 -35q-86 0 -131 88l-232 461 l-483 -480q-34 -36 -62 -52.5t-67 -16.5q-45 0 -77 29t-32 81z" />
<glyph unicode="Y" horiz-adv-x="1341" d="M229 1325q0 51 38 85t98 34q86 0 122 -98l222 -566l553 594q69 72 137 72q50 0 78 -28t28 -77q0 -55 -45 -100l-678 -706l-112 -422q-17 -58 -54.5 -90.5t-87.5 -32.5q-63 0 -92 44q-18 25 -18 63q0 25 8 55l111 409l-283 670q-25 60 -25 94z" />
<glyph unicode="Z" horiz-adv-x="1394" d="M-16 96v4q0 56 69 125l1053 985h-662q-46 0 -79 32.5t-33 78.5t33 79.5t79 33.5h938q51 0 80 -26t29 -71v-4q0 -58 -70 -125l-1052 -985h698q46 0 79.5 -33t33.5 -79t-33.5 -78.5t-79.5 -32.5h-975q-50 0 -79 26t-29 70z" />
<glyph unicode="[" horiz-adv-x="931" d="M31 -137l387 1444q14 57 54 92t99 35h400q39 0 67.5 -29.5t28.5 -69.5t-28 -68t-68 -28h-334l-352 -1311h280q40 0 69.5 -28.5t29.5 -67.5q0 -40 -29.5 -69t-69.5 -29h-430q-57 0 -87.5 38t-16.5 91z" />
<glyph unicode="\" horiz-adv-x="1067" d="M285 1552q0 40 27 66.5t69 26.5q43 0 70 -26.5t36 -72.5l379 -1650q11 -63 11 -76q0 -40 -27 -66t-70 -26q-86 0 -106 98l-379 1651q-10 57 -10 75z" />
<glyph unicode="]" horiz-adv-x="931" d="M-115 -168q0 39 29.5 67.5t69.5 28.5h331l353 1311h-281q-40 0 -69 28t-29 68t29 69.5t69 29.5h432q56 0 87 -38.5t16 -90.5l-387 -1444q-14 -56 -54 -91.5t-98 -35.5h-399q-40 0 -69.5 29t-29.5 69z" />
<glyph unicode="^" horiz-adv-x="1024" d="M268 1049q0 30 31 61l258 258q74 74 141 74h17q43 0 70 -18.5t46 -59.5l121 -262q19 -44 19 -60q0 -20 -15.5 -31.5t-42.5 -11.5q-49 0 -74.5 15.5t-54.5 72.5l-98 193l-203 -197q-54 -48 -85.5 -66t-69.5 -18q-29 0 -44.5 15t-15.5 35z" />
<glyph unicode="_" horiz-adv-x="1228" d="M-305 -231q0 40 29 68t69 28h1237q40 0 68 -28t28 -68t-28 -68.5t-68 -28.5h-1237q-40 0 -69 28.5t-29 68.5z" />
<glyph unicode="`" horiz-adv-x="1024" d="M559 1450q0 32 47.5 59t98.5 27q71 0 92 -63l65 -175q8 -19 8 -36q0 -25 -20.5 -39.5t-56.5 -14.5q-37 0 -59 11.5t-46 44.5l-104 131q-25 36 -25 55z" />
<glyph unicode="a" horiz-adv-x="1193" d="M25 272q0 182 132.5 287t340.5 105q157 0 336 -54l6 19q12 54 12 90q0 164 -240 164q-103 0 -213 -31q-21 -6 -43 -6q-43 0 -70.5 28.5t-27.5 71.5q0 36 21.5 61.5t56.5 36.5q158 52 326 52q210 0 321 -87t111 -247q0 -56 -23 -158l-131 -491q-17 -59 -53.5 -91 t-85.5 -32q-64 0 -87 33q-19 27 -19 64q0 8 1 17l11 39q-150 -166 -357 -166q-140 0 -232.5 81.5t-92.5 213.5zM272 301q0 -65 48 -105t129 -40q112 0 207 74.5t126 183.5l15 49q-125 41 -262 41q-116 0 -189.5 -55.5t-73.5 -147.5z" />
<glyph unicode="b" horiz-adv-x="1368" d="M51 150l328 1232q17 59 53.5 91t85.5 32q64 0 92 -43q17 -25 16 -61q0 -25 -8 -55l-110 -408q80 80 163 123t183 43q185 0 303.5 -126t118.5 -337q0 -140 -50.5 -265t-133.5 -211.5t-192 -137t-224 -50.5q-249 0 -367 216l-20 -80q-14 -55 -49 -89t-88 -34q-63 0 -92 44 q-17 26 -17 61q0 25 8 55zM373 463q0 -119 76 -196t196 -77q153 0 263 127t110 308q0 122 -70 194t-186 72q-98 0 -188 -58.5t-145.5 -158t-55.5 -211.5z" />
<glyph unicode="c" horiz-adv-x="1148" d="M90 457q0 130 52 250t138.5 206.5t204 138.5t244.5 52q234 0 375 -158q43 -47 43 -98q0 -48 -34 -81.5t-83 -33.5q-57 0 -86 39q-86 117 -235 117q-72 0 -140 -35.5t-118.5 -93.5t-81.5 -137.5t-31 -163.5q0 -122 74 -196.5t182 -74.5q118 0 227 82q41 29 76 29 q42 0 71 -30.5t29 -73.5q0 -48 -39 -84q-164 -136 -372 -136q-214 0 -355 132.5t-141 349.5z" />
<glyph unicode="d" horiz-adv-x="1368" d="M90 440q0 140 51 265t134 211.5t192.5 137t224.5 50.5q248 0 365 -215l131 493q15 58 52 90.5t87 32.5q63 0 91 -43q16 -25 16 -59q0 -26 -9 -57l-327 -1233q-15 -58 -53 -90.5t-91 -32.5q-54 0 -82 29q-27 27 -26 73v6l12 45q-80 -80 -163 -123t-183 -43 q-184 0 -303 126t-119 337zM348 457q0 -123 70.5 -195t187.5 -72q98 0 188 58.5t145.5 158t55.5 211.5q0 119 -76.5 196t-197.5 77q-152 0 -262.5 -127t-110.5 -307z" />
<glyph unicode="e" horiz-adv-x="1228" d="M90 449q0 120 47.5 237t129 210t202.5 150.5t258 57.5q203 0 317.5 -118t114.5 -302q0 -49 -12 -119q-24 -110 -123 -110h-696v-21q5 -118 77 -187t201 -69q121 0 217 66q46 24 78 24q40 0 67 -27t27 -69q0 -55 -47 -84q-154 -113 -366 -113q-226 0 -359 128t-133 346z M352 618h561q11 33 11 76q0 91 -54 149t-161 58q-123 0 -219.5 -79t-137.5 -204z" />
<glyph unicode="f" horiz-adv-x="811" d="M106 150l195 718h-29q-38 5 -66 33t-28 74q0 45 31 75.5t74 30.5h75l21 88q90 336 412 336q62 0 116 -14q38 -8 61 -33t23 -65q0 -57 -35 -89q-27 -24 -60 -24q-9 0 -19 2q-41 12 -80 12q-137 0 -179 -151l-16 -62h174q44 0 74.5 -30.5t30.5 -75.5q0 -46 -30.5 -76.5 t-74.5 -30.5h-227l-203 -755q-17 -59 -53.5 -91t-85.5 -32q-63 0 -92 44q-17 25 -17 61q0 25 8 55z" />
<glyph unicode="g" horiz-adv-x="1363" d="M-35 -119q0 45 30.5 77t74.5 32q34 0 75 -21q160 -100 344 -100q169 0 265 96q69 69 112 219l19 66q-90 -83 -176 -123.5t-195 -40.5t-202 44t-153.5 135t-60.5 212q0 131 51 249t134.5 200t192 130t220.5 48q74 0 133 -17.5t101 -50t70 -68t53 -81.5l22 82q15 57 49 91 t88 34q63 0 92 -44q17 -26 17 -63q0 -25 -8 -55l-199 -744q-39 -146 -79.5 -226t-104.5 -142q-152 -152 -426 -152q-260 0 -471 117q-68 36 -68 96zM356 520q0 -111 70.5 -171t179.5 -60q150 0 263.5 109t113.5 253q0 105 -72 173.5t-190 68.5q-147 0 -256 -110t-109 -263z " />
<glyph unicode="h" horiz-adv-x="1265" d="M51 150l328 1232q17 59 53.5 91t85.5 32q64 0 92 -43q17 -25 16 -61q0 -25 -8 -55l-108 -402q164 160 330 160q150 0 238.5 -87.5t88.5 -236.5q0 -64 -32 -190l-127 -477q-15 -58 -51.5 -90.5t-86.5 -32.5q-64 0 -92 43q-17 25 -16 61q0 25 8 56l121 450q16 56 16 109 q0 81 -49 125.5t-139 44.5q-103 0 -183.5 -75t-113.5 -196l-133 -495q-15 -58 -51 -90.5t-86 -32.5q-63 0 -92 44q-17 26 -17 61q0 25 8 55z" />
<glyph unicode="i" horiz-adv-x="585" d="M63 150l222 819q15 60 51 92.5t86 32.5q64 0 92 -44q16 -26 16 -62q0 -26 -8 -56l-219 -819q-17 -59 -53.5 -91t-85.5 -32q-63 0 -92 44q-17 26 -17 61q0 25 8 55zM371 1354l6 24q12 53 56.5 84t105.5 31q60 0 95 -34q27 -26 27 -62q0 -10 -2 -21l-6 -24 q-12 -52 -56.5 -83.5t-104.5 -31.5q-61 -1 -97 33q-27 25 -27 60q0 12 3 24z" />
<glyph unicode="j" horiz-adv-x="583" d="M-252 -229q0 45 30 75q26 27 62 27h10q30 -6 54 -6q45 0 73.5 33t49.5 106l258 963q15 60 51 92.5t86 32.5q64 0 92 -44q16 -26 16 -62q0 -25 -8 -56l-254 -946q-84 -320 -366 -320q-154 0 -154 105zM371 1354l6 24q12 53 56.5 84t105.5 31q60 0 95 -34q27 -26 27 -62 q0 -10 -2 -21l-6 -24q-12 -52 -56.5 -83.5t-104.5 -31.5q-61 0 -97 33q-27 26 -27 60q0 12 3 24z" />
<glyph unicode="k" horiz-adv-x="1191" d="M51 150l332 1232q15 58 51 90.5t86 32.5q63 0 92 -43q17 -25 17 -61q0 -25 -8 -55l-199 -742l569 445q19 15 30 22.5t29.5 15t36.5 7.5q45 0 74 -29t29 -72q0 -57 -47 -86l-373 -284l199 -437q24 -57 24 -86q0 -51 -39 -80.5t-90 -29.5q-91 0 -127 88l-182 391l-215 -164 l-51 -192q-15 -58 -51 -90.5t-86 -32.5q-63 0 -92 44q-17 26 -17 61q0 25 8 55z" />
<glyph unicode="l" horiz-adv-x="585" d="M63 150l332 1232q15 58 52 90.5t88 32.5q63 -1 91 -43q16 -25 15 -59q0 -26 -8 -57l-330 -1233q-17 -59 -53.5 -91t-85.5 -32q-63 0 -92 44q-17 26 -17 61q0 25 8 55z" />
<glyph unicode="m" horiz-adv-x="1945" d="M51 150l219 819q15 60 52 92.5t90 32.5q52 0 82 -31q28 -29 28 -70v-6l-12 -43q76 76 149.5 118t167.5 42q115 0 190.5 -59.5t104.5 -157.5q161 217 406 217q146 0 233.5 -88t87.5 -236q0 -56 -34 -190l-127 -477q-15 -58 -51.5 -90.5t-86.5 -32.5q-64 0 -92 43 q-16 25 -16 61q0 25 8 56l121 450q14 61 14 109q0 82 -45.5 126t-130.5 44q-100 0 -178 -75t-109 -196l-133 -495q-15 -58 -51.5 -90.5t-87.5 -32.5q-62 0 -90 43q-16 25 -16 60q0 26 8 57l120 450q15 66 15 109q0 82 -45.5 126t-130.5 44q-101 0 -178.5 -74.5 t-110.5 -196.5l-133 -495q-15 -58 -51 -90.5t-86 -32.5q-63 0 -92 44q-17 26 -17 61q0 25 8 55z" />
<glyph unicode="n" horiz-adv-x="1263" d="M51 150l219 819q15 60 52 92.5t90 32.5q52 0 82 -31q28 -29 28 -70v-6l-12 -43q164 160 330 160q150 0 238.5 -87.5t88.5 -236.5q0 -64 -32 -190l-127 -477q-15 -58 -51.5 -90.5t-86.5 -32.5q-64 0 -92 43q-17 25 -16 61q0 25 8 56l121 450q16 56 16 109q0 81 -49 125.5 t-139 44.5q-103 0 -183.5 -75t-113.5 -196l-133 -495q-15 -58 -51 -90.5t-86 -32.5q-63 0 -92 44q-17 26 -17 61q0 25 8 55z" />
<glyph unicode="o" horiz-adv-x="1323" d="M92 469q0 122 50 238t134.5 203.5t202 140.5t244.5 53q229 0 368.5 -139t139.5 -357q0 -122 -50.5 -238t-135.5 -202.5t-202 -139.5t-243 -53q-229 0 -368.5 138.5t-139.5 355.5zM338 477q0 -134 75.5 -210.5t200.5 -76.5q100 0 187.5 62.5t135.5 157t48 192.5 q0 134 -75.5 210.5t-200.5 76.5q-102 0 -189 -63t-134.5 -157.5t-47.5 -191.5z" />
<glyph unicode="p" horiz-adv-x="1368" d="M-37 -178l307 1147q15 60 52 92.5t90 32.5q54 0 82 -30q26 -28 26 -74v-7l-12 -45q80 80 163 123t183 43q185 0 303.5 -126t118.5 -337q0 -140 -50.5 -265t-133.5 -211.5t-192 -137t-224 -50.5q-249 0 -367 216l-108 -408q-15 -58 -51.5 -90.5t-86.5 -32.5q-64 0 -92 43 q-16 25 -16 61q0 25 8 56zM373 463q0 -119 76 -196t196 -77q153 0 263 127t110 308q0 122 -70 194t-186 72q-98 0 -188 -58.5t-145.5 -158t-55.5 -211.5z" />
<glyph unicode="q" horiz-adv-x="1368" d="M90 440q0 140 51 265t134 211.5t192.5 137t224.5 50.5q249 0 365 -213l22 78q14 56 49 90.5t89 34.5q62 0 90 -44q16 -26 16 -62q0 -25 -8 -56l-303 -1147q-17 -59 -54 -91t-86 -32q-63 0 -92 43q-16 25 -16 61q0 25 8 56l86 323q-161 -168 -346 -168q-184 0 -303 126 t-119 337zM348 457q0 -123 70.5 -195t187.5 -72q98 0 188 59t145.5 159t55.5 213q0 119 -76.5 194.5t-197.5 75.5q-152 0 -262.5 -127t-110.5 -307z" />
<glyph unicode="r" horiz-adv-x="843" d="M49 150l221 819q15 60 51.5 92.5t86.5 32.5q61 0 89 -42q18 -27 18 -64q0 -20 -5 -42l-25 -92q67 116 151 179t169 63q51 0 79.5 -30t28.5 -83q0 -103 -116 -131q-328 -73 -430 -451l-78 -288q-17 -59 -53.5 -91t-85.5 -32q-63 0 -92 44q-17 26 -17 61q0 25 8 55z" />
<glyph unicode="s" horiz-adv-x="1021" d="M-18 205q0 44 29.5 75t70.5 31q39 0 72 -26q142 -115 311 -115q74 0 123 35t49 94q0 39 -37 69.5t-121 65.5q-62 25 -102.5 44.5t-84 48t-68 57.5t-40.5 69.5t-16 89.5q0 156 116.5 258.5t307.5 102.5q93 0 186 -30t162 -73q57 -33 57 -94q0 -45 -30 -76.5t-74 -31.5 q-29 0 -68 24q-125 86 -252 86q-77 0 -121 -34.5t-44 -88.5q0 -40 38.5 -71t133.5 -70q70 -30 117 -55.5t91.5 -62t66.5 -82.5t22 -103q0 -165 -122 -266t-311 -101q-227 0 -417 142q-45 33 -45 88z" />
<glyph unicode="t" horiz-adv-x="837" d="M131 195q0 59 19 124l145 549h-29q-38 5 -66 33t-28 74q0 45 30.5 75.5t73.5 30.5h76l51 185q15 58 51.5 90.5t86.5 32.5q63 0 91 -43q17 -25 17 -61q0 -25 -8 -56l-41 -148h166q43 0 73.5 -30.5t30.5 -75.5t-30.5 -76t-73.5 -31h-223l-140 -522q-8 -40 -8 -61 q0 -41 27.5 -62.5t77.5 -21.5q23 0 43 4h9q36 1 60 -21q27 -24 27 -71q0 -76 -68 -103q-62 -28 -165 -28q-131 0 -203 58t-72 155z" />
<glyph unicode="u" horiz-adv-x="1265" d="M98 301q0 61 33 191l127 477q15 60 51 92.5t86 32.5q65 0 93 -44q17 -26 16 -62q0 -25 -8 -56l-121 -451q-15 -62 -15 -108q0 -81 49.5 -125.5t137.5 -44.5q103 0 183.5 74.5t113.5 195.5l133 496q15 60 51 92.5t86 32.5q64 0 92 -44q16 -26 16 -62q0 -26 -8 -56 l-217 -819q-17 -59 -54 -91t-89 -32t-82 30q-29 28 -29 69v5l13 45q-162 -162 -328 -162q-151 0 -240.5 87.5t-89.5 236.5z" />
<glyph unicode="v" horiz-adv-x="1191" d="M174 977q0 49 38 83t87 34q55 0 88.5 -29t38.5 -80l84 -694l471 721q55 82 131 82q49 0 77 -26t28 -71q0 -36 -21 -71l-588 -842q-37 -53 -74.5 -77.5t-89.5 -24.5h-6q-110 0 -125 110l-133 821q-6 27 -6 64z" />
<glyph unicode="w" horiz-adv-x="1746" d="M178 975q0 49 38.5 84t88.5 35q55 0 89.5 -29.5t35.5 -79.5l31 -641l385 651q57 99 145 99h13q49 0 78 -27t32 -74l37 -651l399 674q43 78 119 78q47 0 73.5 -26t26.5 -69q0 -31 -22 -71l-516 -846q-59 -100 -160 -100h-8q-52 0 -82 29t-33 85l-39 635l-387 -647 q-60 -102 -160 -102h-8q-52 0 -81.5 29t-32.5 85l-58 817q-4 36 -4 62z" />
<glyph unicode="x" horiz-adv-x="1171" d="M-4 86q0 60 57 111l400 362l-193 324q-33 51 -33 96q0 50 32.5 83.5t84.5 33.5q47 0 74.5 -22t54.5 -70l152 -285l319 311q47 45 69 55q24 11 52 11q42 0 71 -28t29 -71q0 -60 -57 -110l-379 -346l203 -342q31 -54 31 -97q0 -53 -33.5 -85.5t-87.5 -32.5q-42 0 -70 23 t-53 71l-160 303l-342 -330q-5 -4 -16.5 -14.5t-16.5 -14t-15 -11.5t-16.5 -11t-16 -7t-19.5 -5.5t-21 -1.5q-43 0 -71.5 28t-28.5 72z" />
<glyph unicode="y" horiz-adv-x="1198" d="M-94 -195q0 44 30 76.5t70 32.5q15 0 55 -12q66 -25 109 -25q89 0 174 121l-151 915q-5 45 -5 62q0 51 35 85t88 34q51 0 85 -30t38 -81l96 -709l451 738q49 82 129 82q48 0 78.5 -27t30.5 -72q0 -32 -33 -86l-606 -940q-107 -165 -209.5 -234t-231.5 -69q-96 0 -157 31 q-76 31 -76 108z" />
<glyph unicode="z" horiz-adv-x="1134" d="M-25 92v2q0 57 60 109l758 676h-465q-43 0 -73 29.5t-30 70.5q0 43 30 72.5t73 29.5h710q52 0 81.5 -24t29.5 -66v-2q0 -59 -59 -110l-758 -676h493q42 0 72.5 -30.5t30.5 -72.5q0 -41 -30.5 -70.5t-72.5 -29.5h-739q-51 0 -81 24.5t-30 67.5z" />
<glyph unicode="{" horiz-adv-x="997" d="M111 588q0 41 28 67.5t74 26.5h12q145 0 207 71t90 263q32 217 150 322t344 122q54 4 82 -18.5t28 -65.5q0 -37 -21 -59.5t-58 -28.5q-81 -12 -135.5 -35.5t-89 -65t-53.5 -94.5t-30 -132q-18 -141 -58.5 -223t-103 -119t-165.5 -50q81 -15 123.5 -61.5t42.5 -116.5 q0 -52 -33 -145q-37 -118 -37 -172q0 -69 32.5 -110t96.5 -68q59 -26 59 -86q0 -47 -33 -72.5t-83 -13.5q-159 38 -234.5 114t-75.5 195q0 71 43 196q27 86 27 138q0 57 -26.5 85t-94.5 37q-108 19 -108 99z" />
<glyph unicode="|" horiz-adv-x="677" d="M276 -174v1720q0 41 29.5 70t69.5 29q41 0 70.5 -29t29.5 -70v-1720q0 -41 -29.5 -69.5t-70.5 -28.5q-40 0 -69.5 28.5t-29.5 69.5z" />
<glyph unicode="}" horiz-adv-x="997" d="M-104 -201q0 37 21 59.5t58 28.5q81 12 135.5 35.5t89 65.5t53.5 95t30 132q18 141 59 223.5t103.5 119t164.5 48.5q-80 15 -122 61.5t-42 116.5q0 59 31 146q37 118 37 172q0 70 -32.5 110.5t-96.5 67.5q-59 26 -59 86q0 46 33.5 72t82.5 14q160 -38 236 -114t76 -195 q0 -72 -43 -197q-29 -82 -29 -137q0 -57 27 -85.5t94 -37.5h2q106 -19 106 -98q0 -41 -28 -67.5t-74 -26.5h-12q-144 0 -206.5 -71t-90.5 -263q-32 -217 -150 -322.5t-344 -122.5q-54 -4 -82 18.5t-28 65.5z" />
<glyph unicode="~" horiz-adv-x="1013" d="M147 539q0 26 17 53q106 190 252 190q47 0 80.5 -15.5t72.5 -47.5q42 -32 63 -43.5t44 -11.5q56 0 108 75q33 41 78 41q31 0 51.5 -18.5t20.5 -48.5q0 -31 -14 -56q-108 -188 -252 -188q-48 0 -81 15t-75 48q-60 46 -78 52q-13 4 -26 4q-30 0 -55.5 -18t-55.5 -58 q-31 -43 -76 -43q-31 0 -52.5 20t-21.5 50z" />
<glyph unicode="&#xa1;" horiz-adv-x="620" d="M45 84l293 844q23 63 82 63q34 0 51.5 -22.5t11.5 -61.5l-155 -827q-8 -38 -33 -62t-59 -24h-138q-35 0 -51 26.5t-2 63.5zM365 1278l8 35q14 61 57 96t105 35q64 0 100 -40.5t24 -96.5l-8 -35q-14 -60 -57 -95.5t-105 -35.5q-64 0 -100 40.5t-24 96.5z" />
<glyph unicode="&#xa2;" horiz-adv-x="1183" d="M141 653q0 175 84.5 321.5t232 231t324.5 84.5q36 0 54 -2l32 82q37 86 101 86q45 0 66 -32t1 -83l-35 -88q121 -46 183 -127q47 -47 47 -94q0 -50 -34 -83.5t-85 -33.5q-52 0 -84 37q-48 63 -117 92l-260 -665q6 -2 21 -2q121 3 233 74q46 24 82 24q42 0 69 -30t27 -74 q0 -63 -49 -97q-161 -112 -362 -112q-32 0 -94 8l-43 -107q-32 -86 -99 -86q-45 0 -67 33t-2 82l49 121q-129 59 -202 173.5t-73 266.5zM387 657q0 -77 31.5 -137t87.5 -94l254 649h-8q-155 -10 -260 -134t-105 -284z" />
<glyph unicode="&#xa3;" horiz-adv-x="1306" d="M-6 88q0 71 82 94l125 35l94 352h-37q-43 0 -74.5 31.5t-31.5 75.5q0 43 31.5 74.5t74.5 31.5h94l58 215q54 203 163 312q143 143 369 143q217 0 340 -133q53 -49 53 -102q0 -55 -35 -92.5t-90 -37.5q-47 0 -86 39q-38 45 -83.5 70t-116.5 25q-100 0 -172 -72 q-64 -64 -101 -195l-49 -172h391q43 0 75 -31.5t32 -74.5q0 -44 -32 -75.5t-75 -31.5h-446l-92 -350h534q46 0 78.5 -32t32.5 -78t-32.5 -77.5t-78.5 -31.5h-897q-42 0 -70 25.5t-28 62.5z" />
<glyph unicode="&#xa5;" horiz-adv-x="1449" d="M129 299q0 38 27.5 65t64.5 27h338l39 150h-289q-38 0 -65 26.5t-27 63.5q0 38 27 65t65 27h266l-225 508q-26 63 -26 92q0 52 36.5 86.5t90.5 34.5q88 0 122 -84l213 -529l512 543q34 36 61.5 54t61.5 18q49 0 77 -28t28 -77t-47 -100l-514 -518h217q38 0 65 -27t27 -65 q0 -37 -27 -63.5t-65 -26.5h-340l-39 -150h291q38 0 65 -27t27 -65q0 -37 -27 -63.5t-65 -26.5h-340l-25 -96q-17 -58 -54 -90.5t-83 -32.5q-61 0 -90 39.5t-8 111.5l16 68h-289q-37 0 -64.5 26.5t-27.5 63.5z" />
<glyph unicode="&#xa7;" horiz-adv-x="1294" d="M115 205q0 44 29.5 75t72.5 31q44 0 72 -24q144 -115 309 -115q78 0 127 28t49 74q0 42 -51 72.5t-180 69.5q-76 23 -126.5 41.5t-104 45t-84.5 54.5t-50.5 67.5t-19.5 86.5q0 106 83 176t232 90q-98 73 -98 178q0 133 124 217t314 84q108 0 210 -31.5t175 -81.5 q51 -33 51 -92q0 -44 -31 -75t-75 -31q-35 0 -64 22q-146 99 -284 99q-81 0 -131 -28.5t-50 -74.5q0 -42 51 -72t181 -69q76 -22 127 -40.5t104 -44.5t84 -54t50.5 -67.5t19.5 -86.5q0 -106 -83.5 -177t-232.5 -91q99 -74 99 -178q0 -132 -122.5 -216.5t-307.5 -84.5 q-126 0 -236.5 37t-189.5 100q-43 31 -43 86zM393 750q0 -46 47 -77.5t158 -66.5q130 -43 215 -43q75 0 128.5 36.5t53.5 88.5q0 46 -46.5 77t-157.5 66q-130 43 -216 43q-75 0 -128.5 -36t-53.5 -88z" />
<glyph unicode="&#xa8;" horiz-adv-x="1024" d="M377 1327l8 33q13 52 55.5 83.5t98.5 31.5q57 0 90.5 -36t21.5 -85l-8 -33q-12 -50 -53.5 -82.5t-97.5 -32.5q-59 0 -93 36t-22 85zM784 1327l9 33q13 52 55 83.5t98 31.5q57 0 91 -36t22 -85l-8 -33q-12 -50 -54 -82.5t-98 -32.5q-59 0 -93 36t-22 85z" />
<glyph unicode="&#xa9;" horiz-adv-x="1699" d="M154 713v4q0 149 58 285.5t157 236.5t237 159.5t291 59.5t290.5 -59t235.5 -158t155.5 -235t57.5 -285v-4q0 -149 -58 -285.5t-157 -237t-237 -160t-291 -59.5t-290.5 59t-235.5 158.5t-155.5 235.5t-57.5 285zM233 713q0 -136 50.5 -258.5t137.5 -211.5t210 -141.5 t262 -52.5t263.5 53t212.5 143t139 213t51 259v4q0 181 -86 333t-238.5 241t-337.5 89q-186 0 -339 -90t-239 -242.5t-86 -334.5v-4zM510 723v4q0 167 113.5 284t285.5 117q155 0 265 -88q32 -22 32 -61q0 -32 -21 -54t-52 -22q-22 0 -50 21q-83 65 -176 65q-103 0 -172 -76 t-69 -184v-4q0 -107 69.5 -183.5t173.5 -76.5q100 0 187 74q18 18 45 18q29 0 50 -21.5t21 -50.5q0 -30 -24 -51q-60 -54 -126 -81t-159 -27q-168 0 -280.5 115t-112.5 282z" />
<glyph unicode="&#xaa;" horiz-adv-x="798" d="M104 637q0 25 17.5 42t42.5 17h452q25 0 42.5 -17t17.5 -42t-17.5 -42t-42.5 -17h-452q-25 0 -42.5 17t-17.5 42zM211 985q0 100 74.5 159.5t187.5 59.5q84 0 180 -30l4 14q9 32 9 41q0 88 -131 88q-58 0 -109 -14l-35 -7q-24 0 -38.5 14.5t-14.5 41.5q0 48 47 63 q87 27 180 27q117 0 178.5 -48t61.5 -137q0 -30 -12 -88l-74 -268q-9 -34 -30.5 -53t-49.5 -19q-34 0 -50 19.5t-11 48.5l6 21q-90 -93 -197 -93q-77 0 -126.5 45t-49.5 115zM356 1001q0 -32 24 -52.5t64 -20.5q60 0 114 41.5t69 99.5l4 21q-77 22 -133 22q-63 0 -102.5 -31 t-39.5 -80z" />
<glyph unicode="&#xab;" horiz-adv-x="1239" d="M104 510q0 35 33 65l361 355q20 17 31 25.5t30.5 17t38.5 8.5q42 0 68 -25t26 -67q0 -48 -37 -78l-317 -307l133 -266q16 -40 16 -66q0 -43 -31 -71.5t-75 -28.5q-67 0 -98 63l-152 301q-2 5 -9 18t-9.5 19t-5.5 16.5t-3 20.5zM616 510q0 34 35 65l359 355q20 17 31 25.5 t30.5 17t38.5 8.5q43 0 68.5 -24.5t25.5 -67.5q0 -47 -35 -78l-319 -307l133 -266q16 -33 16 -66q0 -43 -31 -71.5t-75 -28.5q-67 0 -98 63l-152 301q-2 5 -9 18t-9.5 19t-5.5 16.5t-3 20.5z" />
<glyph unicode="&#xad;" horiz-adv-x="841" d="M131 627q0 51 35.5 87t85.5 36h385q51 0 87 -36t36 -87q0 -50 -36 -85.5t-87 -35.5h-385q-50 0 -85.5 36t-35.5 85z" />
<glyph unicode="&#xae;" horiz-adv-x="782" d="M188 1094v2q0 147 104.5 252.5t252.5 105.5q150 0 253 -104.5t103 -251.5v-2q0 -147 -104 -253t-252 -106q-150 0 -253.5 105t-103.5 252zM229 1094q0 -132 91 -225t225 -93q132 0 223.5 94t91.5 226v2q0 132 -90.5 224.5t-224.5 92.5q-133 0 -224.5 -94t-91.5 -225v-2z M397 954v287q0 20 13 33.5t32 13.5h129q68 0 109 -31.5t41 -91.5q0 -82 -74 -112l55 -68q13 -13 13 -33q0 -19 -12.5 -31t-32.5 -12q-18 0 -37 19l-86 106h-60v-80q0 -19 -13 -32t-32 -13t-32 13t-13 32zM487 1108h78q30 0 47 13.5t17 37.5t-17 37.5t-47 13.5h-78v-102z" />
<glyph unicode="&#xaf;" horiz-adv-x="1024" d="M362 1331q0 37 27 63.5t64 26.5h542q38 0 65 -26.5t27 -63.5t-27 -63.5t-65 -26.5h-542q-37 0 -64 26.5t-27 63.5z" />
<glyph unicode="&#xb0;" horiz-adv-x="862" d="M180 1071q0 151 111 265t266 114q138 0 222.5 -84t84.5 -215q0 -150 -111 -264.5t-264 -114.5q-139 0 -224 84t-85 215zM336 1079q0 -76 44.5 -122t115.5 -46q89 0 151 72t62 162q0 75 -44.5 121.5t-115.5 46.5q-89 0 -151 -72.5t-62 -161.5z" />
<glyph unicode="&#xb1;" horiz-adv-x="1298" d="M33 104q0 44 30.5 75.5t73.5 31.5h791q44 0 75 -31.5t31 -75.5q0 -43 -31 -73.5t-75 -30.5h-791q-43 0 -73.5 30.5t-30.5 73.5zM238 872q0 45 31 77t75 32h311l70 260q15 56 49 87.5t78 31.5q57 0 82.5 -39.5t7.5 -108.5l-61 -231h252q44 0 75 -32t31 -77q0 -44 -31 -76 t-75 -32h-312l-69 -262q-15 -56 -49 -87.5t-78 -31.5q-57 0 -82.5 39t-7.5 108l61 234h-252q-44 0 -75 32t-31 76z" />
<glyph unicode="&#xb4;" horiz-adv-x="1024" d="M508 1255q0 25 20 45l164 181q21 21 31 30t29 18t39 9q51 0 100 -27.5t49 -58.5q0 -30 -39 -57l-174 -131q-76 -56 -152 -56q-67 0 -67 47z" />
<glyph unicode="&#xb6;" horiz-adv-x="1157" d="M188 883q0 121 45 221t131.5 174t222 115t306.5 41h182q58 0 87.5 -37.5t15.5 -91.5l-318 -1192q-17 -58 -54 -90.5t-87 -32.5q-64 0 -94 44t-9 118l82 313q-240 8 -375 111t-135 307z" />
<glyph unicode="&#xb7;" horiz-adv-x="600" d="M168 612l8 35q14 60 57 95.5t105 35.5q64 0 100.5 -40.5t24.5 -96.5l-8 -35q-14 -61 -57 -96t-105 -35q-64 0 -100.5 40.5t-24.5 96.5z" />
<glyph unicode="&#xb8;" horiz-adv-x="1024" d="M141 -240q0 27 29 60l190 200h187l-205 -294q-35 -54 -86 -54q-40 0 -77.5 27.5t-37.5 60.5z" />
<glyph unicode="&#xba;" horiz-adv-x="815" d="M106 637q0 24 18 41.5t42 17.5h483q25 0 42.5 -17t17.5 -42t-17.5 -42t-42.5 -17h-483q-24 0 -42 17.5t-18 41.5zM219 1096q0 139 101.5 243.5t244.5 104.5q128 0 206.5 -77t78.5 -198q0 -139 -101 -243.5t-245 -104.5q-129 0 -207 77.5t-78 197.5zM362 1102 q0 -69 41 -112.5t107 -43.5q83 0 140 67.5t57 149.5q0 70 -41 113t-107 43q-83 0 -140 -67t-57 -150z" />
<glyph unicode="&#xbb;" horiz-adv-x="1239" d="M29 178q0 48 37 78l317 307l-133 266q-17 43 -17 66q0 42 32 71t75 29q67 0 98 -63l152 -301l7 -14t7.5 -15.5t5.5 -13.5t4.5 -15.5t1.5 -15.5q0 -36 -32 -65l-361 -355q-55 -51 -100 -51q-42 0 -68 25t-26 67zM541 178q0 45 37 78l317 307l-131 266q-19 40 -19 66 q0 42 32 71t75 29q38 0 60 -15t38 -48l152 -301l7 -14t7.5 -15.5t5.5 -13.5t4.5 -15.5t1.5 -15.5q0 -36 -32 -65l-361 -355q-55 -51 -98 -51t-69.5 25t-26.5 67z" />
<glyph unicode="&#xbf;" horiz-adv-x="1107" d="M66 350q0 184 139 300t391 153l39 108q14 36 41 58t61 22h13q35 0 54 -24t15 -64l-28 -186q-4 -40 -29.5 -60t-77.5 -28q-160 -21 -257 -85t-97 -165q0 -79 55.5 -123.5t155.5 -44.5q128 0 262 90q56 31 88 31q43 0 71.5 -30.5t28.5 -70.5q0 -61 -53 -102 q-186 -147 -430 -147q-202 0 -322 106.5t-120 261.5zM680 1278l8 35q14 61 57 96t105 35q64 0 100.5 -40.5t24.5 -96.5l-8 -35q-14 -60 -57 -95.5t-105 -35.5q-64 0 -100.5 40.5t-24.5 96.5z" />
<glyph unicode="&#xc0;" horiz-adv-x="1552" d="M-27 90q0 43 31 82l848 1180q71 102 178 102h6q117 0 140 -121l210 -1157q9 -52 9 -65q0 -50 -36.5 -85.5t-92.5 -35.5q-51 0 -84 28.5t-39 73.5l-43 254h-699l-194 -276q-59 -80 -129 -80q-47 0 -76 27t-29 73zM557 569h506l-98 580zM805 1804q0 32 47 59t98 27 q71 0 92 -63l66 -174q8 -19 8 -37q0 -25 -20.5 -39t-57.5 -14t-58.5 11t-45.5 44l-105 131q-24 34 -24 55z" />
<glyph unicode="&#xc1;" horiz-adv-x="1552" d="M-27 90q0 43 31 82l848 1180q71 102 178 102h6q117 0 140 -121l210 -1157q9 -52 9 -65q0 -50 -36.5 -85.5t-92.5 -35.5q-51 0 -84 28.5t-39 73.5l-43 254h-699l-194 -276q-59 -80 -129 -80q-47 0 -76 27t-29 73zM557 569h506l-98 580zM1020 1610q0 25 20 45l164 180 q21 21 31 30t29 18t39 9q51 0 100 -27.5t49 -58.5q0 -30 -39 -57l-174 -131q-75 -55 -152 -55q-67 0 -67 47z" />
<glyph unicode="&#xc2;" horiz-adv-x="1552" d="M-27 90q0 43 31 82l848 1180q71 102 178 102h6q117 0 140 -121l210 -1157q9 -52 9 -65q0 -50 -36.5 -85.5t-92.5 -35.5q-51 0 -84 28.5t-39 73.5l-43 254h-699l-194 -276q-59 -80 -129 -80q-47 0 -76 27t-29 73zM557 569h506l-98 580zM768 1602q0 23 29 55l176 166 q59 59 131 59h67q83 0 115 -65l84 -160q23 -37 23 -53q0 -20 -16 -30.5t-42 -10.5q-51 0 -82 9.5t-63 45.5l-80 92l-131 -92q-79 -55 -158 -55q-53 0 -53 39z" />
<glyph unicode="&#xc3;" horiz-adv-x="1552" d="M-27 90q0 43 31 82l848 1180q71 102 178 102h6q117 0 140 -121l210 -1157q9 -52 9 -65q0 -50 -36.5 -85.5t-92.5 -35.5q-51 0 -84 28.5t-39 73.5l-43 254h-699l-194 -276q-59 -80 -129 -80q-47 0 -76 27t-29 73zM557 569h506l-98 580zM713 1634q0 28 16 54 q106 190 252 190q47 0 81 -15.5t73 -47.5q59 -45 78 -52q13 -4 28 -4q56 0 109 76q17 21 33.5 31t43.5 10q30 0 51 -19t21 -49t-14 -55q-108 -188 -252 -188q-48 0 -81 15t-75 48q-32 24 -44 32.5t-28 15.5t-32 7q-54 0 -111 -75q-31 -43 -76 -43q-31 0 -52 19.5t-21 49.5z " />
<glyph unicode="&#xc4;" horiz-adv-x="1552" d="M-27 90q0 43 31 82l848 1180q71 102 178 102h6q117 0 140 -121l210 -1157q9 -52 9 -65q0 -50 -36.5 -85.5t-92.5 -35.5q-51 0 -84 28.5t-39 73.5l-43 254h-699l-194 -276q-59 -80 -129 -80q-47 0 -76 27t-29 73zM557 569h506l-98 580zM764 1681l8 33q13 52 55.5 83.5 t98.5 31.5q57 0 90.5 -36t21.5 -85l-8 -33q-12 -50 -53.5 -82t-97.5 -32q-59 0 -93 35.5t-22 84.5zM1171 1681l9 33q13 52 55 83.5t98 31.5q57 0 91 -36t22 -85l-8 -33q-12 -50 -54 -82t-98 -32q-59 0 -93 35.5t-22 84.5z" />
<glyph unicode="&#xc5;" horiz-adv-x="1552" d="M-27 90q0 43 31 82l889 1237q-68 55 -68 147q0 103 75.5 178.5t182.5 75.5q98 0 157.5 -56.5t59.5 -141.5q0 -70 -37 -130t-98 -91l221 -1215q9 -52 9 -65q0 -50 -36.5 -85.5t-92.5 -35.5q-51 0 -84 28.5t-39 73.5l-43 254h-699l-194 -276q-59 -80 -129 -80q-47 0 -76 27 t-29 73zM557 569h506l-98 580zM940 1556q0 -44 28.5 -73t78.5 -29q60 0 99.5 47t39.5 109q0 44 -28.5 73t-76.5 29q-61 0 -101 -47t-40 -109z" />
<glyph unicode="&#xc6;" horiz-adv-x="2172" d="M0 80q0 50 39 98l960 1159q82 97 172 97h983q46 0 79.5 -33.5t33.5 -79.5q0 -47 -33.5 -80t-79.5 -33h-694l-100 -374h541q47 0 80.5 -33t33.5 -80q0 -46 -33.5 -78.5t-80.5 -32.5h-601l-104 -385h645q46 0 79.5 -33t33.5 -79q0 -47 -33.5 -80t-79.5 -33h-811 q-63 0 -93 44t-9 116l51 186h-524l-232 -283q-33 -38 -61.5 -55.5t-65.5 -17.5q-45 0 -70.5 24.5t-25.5 65.5zM637 569h401l172 645h-43z" />
<glyph unicode="&#xc7;" horiz-adv-x="1495" d="M154 586q0 170 68.5 330t184 279t276.5 191t337 72q300 0 479 -201q51 -47 51 -106q0 -53 -37 -91t-92 -38q-59 0 -90 39q-66 81 -143 123.5t-197 42.5q-113 0 -219 -52t-184 -137.5t-125 -201.5t-47 -240q0 -175 109 -281t282 -106q100 0 170 28t156 93q49 30 86 30 q49 0 81.5 -34t32.5 -84q0 -59 -45 -95q-91 -79 -216 -125.5t-271 -46.5h-17l-172 -249q-35 -54 -86 -54q-39 0 -76.5 27.5t-37.5 60.5q0 28 28 60l168 178q-206 52 -330 207t-124 381z" />
<glyph unicode="&#xc8;" horiz-adv-x="1351" d="M82 160l307 1147q17 60 54.5 93.5t88.5 33.5h811q46 0 79.5 -33.5t33.5 -79.5q0 -47 -33.5 -80t-79.5 -33h-729l-100 -374h576q47 0 80.5 -33t33.5 -80q0 -46 -33.5 -78.5t-80.5 -32.5h-635l-105 -385h680q46 0 79.5 -33t33.5 -79q0 -47 -33.5 -80t-79.5 -33h-846 q-63 0 -92.5 44t-9.5 116zM711 1784q0 32 47 59t98 27q71 0 92 -64l66 -174q8 -19 8 -37q0 -25 -20.5 -39t-57.5 -14t-58.5 11t-45.5 44l-105 132q-24 34 -24 55z" />
<glyph unicode="&#xc9;" horiz-adv-x="1351" d="M82 160l307 1147q17 60 54.5 93.5t88.5 33.5h811q46 0 79.5 -33.5t33.5 -79.5q0 -47 -33.5 -80t-79.5 -33h-729l-100 -374h576q47 0 80.5 -33t33.5 -80q0 -46 -33.5 -78.5t-80.5 -32.5h-635l-105 -385h680q46 0 79.5 -33t33.5 -79q0 -47 -33.5 -80t-79.5 -33h-846 q-63 0 -92.5 44t-9.5 116zM926 1589q0 25 20 45l164 181q22 22 31 30t28 17.5t39 9.5q51 0 100.5 -27.5t49.5 -58.5q0 -30 -39 -57l-174 -132q-75 -55 -152 -55q-67 0 -67 47z" />
<glyph unicode="&#xca;" horiz-adv-x="1351" d="M82 160l307 1147q17 60 54.5 93.5t88.5 33.5h811q46 0 79.5 -33.5t33.5 -79.5q0 -47 -33.5 -80t-79.5 -33h-729l-100 -374h576q47 0 80.5 -33t33.5 -80q0 -46 -33.5 -78.5t-80.5 -32.5h-635l-105 -385h680q46 0 79.5 -33t33.5 -79q0 -47 -33.5 -80t-79.5 -33h-846 q-63 0 -92.5 44t-9.5 116zM672 1581q0 24 28 55l177 166q60 60 131 60h67q83 0 115 -66l84 -160q22 -35 22 -53q0 -20 -15.5 -30.5t-41.5 -10.5q-51 0 -82 9.5t-63 45.5l-80 93l-131 -93q-79 -55 -158 -55q-53 0 -53 39z" />
<glyph unicode="&#xcb;" horiz-adv-x="1351" d="M82 160l307 1147q17 60 54.5 93.5t88.5 33.5h811q46 0 79.5 -33.5t33.5 -79.5q0 -47 -33.5 -80t-79.5 -33h-729l-100 -374h576q47 0 80.5 -33t33.5 -80q0 -46 -33.5 -78.5t-80.5 -32.5h-635l-105 -385h680q46 0 79.5 -33t33.5 -79q0 -47 -33.5 -80t-79.5 -33h-846 q-63 0 -92.5 44t-9.5 116zM668 1661l8 33q13 52 55 83t98 31q57 0 91 -35.5t22 -84.5l-8 -33q-12 -50 -54 -82.5t-98 -32.5q-59 0 -92.5 36t-21.5 85zM1075 1661l8 33q13 52 55.5 83t98.5 31q57 0 91 -35.5t22 -84.5l-9 -33q-12 -50 -53.5 -82.5t-97.5 -32.5q-59 0 -93 36 t-22 85z" />
<glyph unicode="&#xcc;" horiz-adv-x="649" d="M94 152l314 1169q17 58 54 90.5t87 32.5q63 0 92.5 -43.5t9.5 -118.5l-315 -1169q-15 -58 -52 -90.5t-87 -32.5q-64 0 -94 44t-9 118zM332 1784q0 32 47 59t98 27q71 0 92 -64l66 -174q8 -19 8 -37q0 -25 -20.5 -39t-57.5 -14t-58.5 11t-45.5 44l-105 132q-24 34 -24 55z " />
<glyph unicode="&#xcd;" horiz-adv-x="649" d="M94 152l314 1169q17 58 54 90.5t87 32.5q63 0 92.5 -43.5t9.5 -118.5l-315 -1169q-15 -58 -52 -90.5t-87 -32.5q-64 0 -94 44t-9 118zM543 1589q0 25 20 45l164 181q22 22 31 30t28 17.5t39 9.5q51 0 100.5 -27.5t49.5 -58.5q0 -30 -39 -57l-174 -132q-75 -55 -152 -55 q-67 0 -67 47z" />
<glyph unicode="&#xce;" horiz-adv-x="649" d="M94 152l314 1169q17 58 54 90.5t87 32.5q63 0 92.5 -43.5t9.5 -118.5l-315 -1169q-15 -58 -52 -90.5t-87 -32.5q-64 0 -94 44t-9 118zM293 1581q0 23 29 55l176 166q60 60 131 60h67q83 0 115 -66l84 -160q23 -37 23 -53q0 -20 -16 -30.5t-42 -10.5q-51 0 -82 9.5 t-63 45.5l-80 93l-131 -93q-79 -55 -158 -55q-53 0 -53 39z" />
<glyph unicode="&#xcf;" horiz-adv-x="649" d="M94 152l314 1169q17 58 54 90.5t87 32.5q63 0 92.5 -43.5t9.5 -118.5l-315 -1169q-15 -58 -52 -90.5t-87 -32.5q-64 0 -94 44t-9 118zM289 1661l8 33q13 52 55.5 83t98.5 31q57 0 90.5 -35.5t21.5 -84.5l-8 -33q-12 -50 -54 -82.5t-98 -32.5q-59 0 -92.5 36t-21.5 85z M696 1661l9 33q13 52 55 83t98 31q57 0 91 -35.5t22 -84.5l-8 -33q-12 -50 -54 -82.5t-98 -32.5q-59 0 -93 36t-22 85z" />
<glyph unicode="&#xd0;" horiz-adv-x="1634" d="M104 721q0 47 32.5 80t78.5 33h94l127 473q17 60 55 93.5t89 33.5h280q374 0 561 -187q156 -156 156 -418q0 -161 -59 -304.5t-172 -256.5q-268 -268 -746 -268h-369q-63 0 -92.5 44t-9.5 116l119 448h-33q-46 0 -78.5 33.5t-32.5 79.5zM399 229h232q159 0 294 50 t230 145q160 160 160 395q0 163 -101 264q-121 121 -372 121h-178l-101 -370h213q47 0 80 -33t33 -80q0 -46 -33 -79.5t-80 -33.5h-274z" />
<glyph unicode="&#xd1;" horiz-adv-x="1609" d="M80 152l311 1163q37 127 150 127h12q101 0 149 -105l441 -917l243 901q15 58 52 90.5t88 32.5q63 0 91.5 -43.5t8.5 -118.5l-317 -1173q-29 -117 -133 -117h-5q-56 0 -88 23.5t-55 72.5l-461 954l-250 -929q-15 -58 -51 -90.5t-86 -32.5q-63 0 -92 43.5t-8 118.5z M717 1614q0 27 16 53q106 191 252 191q47 0 81 -16t73 -48q32 -24 44 -32.5t28.5 -15.5t33.5 -7q56 0 109 76q32 40 78 40q30 0 50.5 -18.5t20.5 -48.5t-14 -55q-109 -189 -252 -189q-48 0 -80.5 15t-75.5 49q-32 24 -44 32.5t-28 15.5t-32 7q-30 0 -55.5 -18t-55.5 -58 q-31 -43 -75 -43q-31 0 -52.5 20t-21.5 50z" />
<glyph unicode="&#xd2;" d="M156 604q0 129 40 255t116.5 233.5t179 189.5t236 129t278.5 47q142 0 263.5 -48.5t204.5 -132.5t130 -200t47 -248q0 -162 -64 -316.5t-174.5 -273.5t-271.5 -191.5t-342 -72.5q-142 0 -262.5 48.5t-203.5 132.5t-130 200t-47 248zM418 618q0 -182 109.5 -296.5 t297.5 -114.5q120 0 227.5 54t180 140.5t114.5 195t42 218.5q0 181 -110 296.5t-298 115.5q-120 0 -227 -54t-179.5 -140.5t-114.5 -195.5t-42 -219zM848 1804q0 32 47 59t98 27q71 0 92 -63l66 -174q8 -19 8 -37q0 -25 -20.5 -39t-57.5 -14t-58.5 11t-45.5 44l-105 131 q-24 34 -24 55z" />
<glyph unicode="&#xd3;" d="M156 604q0 129 40 255t116.5 233.5t179 189.5t236 129t278.5 47q142 0 263.5 -48.5t204.5 -132.5t130 -200t47 -248q0 -162 -64 -316.5t-174.5 -273.5t-271.5 -191.5t-342 -72.5q-142 0 -262.5 48.5t-203.5 132.5t-130 200t-47 248zM418 618q0 -182 109.5 -296.5 t297.5 -114.5q120 0 227.5 54t180 140.5t114.5 195t42 218.5q0 181 -110 296.5t-298 115.5q-120 0 -227 -54t-179.5 -140.5t-114.5 -195.5t-42 -219zM1061 1610q0 25 20 45l164 180q22 22 31 30t28 17.5t39 9.5q51 0 100.5 -27.5t49.5 -58.5q0 -30 -39 -57l-174 -131 q-75 -55 -152 -55q-67 0 -67 47z" />
<glyph unicode="&#xd4;" d="M156 604q0 129 40 255t116.5 233.5t179 189.5t236 129t278.5 47q142 0 263.5 -48.5t204.5 -132.5t130 -200t47 -248q0 -162 -64 -316.5t-174.5 -273.5t-271.5 -191.5t-342 -72.5q-142 0 -262.5 48.5t-203.5 132.5t-130 200t-47 248zM418 618q0 -182 109.5 -296.5 t297.5 -114.5q120 0 227.5 54t180 140.5t114.5 195t42 218.5q0 181 -110 296.5t-298 115.5q-120 0 -227 -54t-179.5 -140.5t-114.5 -195.5t-42 -219zM807 1602q0 23 29 55l176 166q59 59 131 59h67q83 0 115 -65l84 -160q23 -37 23 -53q0 -20 -16 -30.5t-42 -10.5 q-51 0 -82 9.5t-63 45.5l-80 92l-131 -92q-79 -55 -158 -55q-53 0 -53 39z" />
<glyph unicode="&#xd5;" d="M156 604q0 129 40 255t116.5 233.5t179 189.5t236 129t278.5 47q142 0 263.5 -48.5t204.5 -132.5t130 -200t47 -248q0 -162 -64 -316.5t-174.5 -273.5t-271.5 -191.5t-342 -72.5q-142 0 -262.5 48.5t-203.5 132.5t-130 200t-47 248zM418 618q0 -182 109.5 -296.5 t297.5 -114.5q120 0 227.5 54t180 140.5t114.5 195t42 218.5q0 181 -110 296.5t-298 115.5q-120 0 -227 -54t-179.5 -140.5t-114.5 -195.5t-42 -219zM754 1634q0 28 16 54q106 190 252 190q47 0 81 -15.5t73 -47.5q59 -45 78 -52q13 -4 28 -4q56 0 109 76q17 21 33.5 31 t43.5 10q30 0 51 -19t21 -49t-14 -55q-108 -188 -252 -188q-48 0 -81 15t-75 48q-32 24 -44 32.5t-28 15.5t-32 7q-54 0 -111 -75q-31 -43 -76 -43q-31 0 -52 19.5t-21 49.5z" />
<glyph unicode="&#xd6;" d="M156 604q0 129 40 255t116.5 233.5t179 189.5t236 129t278.5 47q142 0 263.5 -48.5t204.5 -132.5t130 -200t47 -248q0 -162 -64 -316.5t-174.5 -273.5t-271.5 -191.5t-342 -72.5q-142 0 -262.5 48.5t-203.5 132.5t-130 200t-47 248zM418 618q0 -182 109.5 -296.5 t297.5 -114.5q120 0 227.5 54t180 140.5t114.5 195t42 218.5q0 181 -110 296.5t-298 115.5q-120 0 -227 -54t-179.5 -140.5t-114.5 -195.5t-42 -219zM803 1681l8 33q13 52 55.5 83.5t98.5 31.5q57 0 90.5 -36t21.5 -85l-8 -33q-12 -50 -53.5 -82t-97.5 -32q-59 0 -93 35.5 t-22 84.5zM1210 1681l9 33q13 52 55 83.5t98 31.5q57 0 91 -36t22 -85l-8 -33q-12 -50 -54 -82t-98 -32q-59 0 -93 35.5t-22 84.5z" />
<glyph unicode="&#xd7;" horiz-adv-x="1298" d="M156 377q0 50 45 88l350 270l-184 248q-29 42 -29 76q0 49 34.5 83t82.5 34q62 0 96 -52l178 -252l344 277q31 25 70 25q44 0 75 -31.5t31 -77.5q0 -50 -45 -88l-350 -270l184 -248q29 -42 29 -76q0 -47 -35 -82t-82 -35q-58 0 -96 51l-176 252l-344 -276 q-36 -25 -72 -25q-43 0 -74.5 32.5t-31.5 76.5z" />
<glyph unicode="&#xd8;" d="M41 51q0 39 51 86l154 129q-90 146 -90 338q0 129 40 255t116.5 233.5t179 189.5t236 129t278.5 47q273 0 456 -172l156 131q47 37 86 37q36 0 56 -20t20 -52q0 -39 -51 -86l-164 -139q86 -147 86 -328q0 -162 -64 -316.5t-174.5 -273.5t-271.5 -191.5t-342 -72.5 q-265 0 -449 166l-147 -123q-42 -38 -86 -38q-35 0 -55.5 20t-20.5 51zM410 618q0 -108 36 -190l828 696q-111 111 -293 111q-120 0 -228.5 -55t-182 -143.5t-117 -198.5t-43.5 -220zM539 301q107 -104 286 -104q120 0 228.5 55.5t182.5 143.5t117.5 198.5t43.5 220.5 q0 95 -35 176z" />
<glyph unicode="&#xd9;" horiz-adv-x="1560" d="M176 451q0 98 33 227l170 643q17 58 54 90.5t87 32.5q63 0 93 -43.5t10 -118.5l-172 -639q-21 -99 -21 -158q0 -124 78 -199t223 -75q162 0 268 106q108 108 158 301l189 703q15 58 53 90.5t88 32.5q63 0 92.5 -43.5t9.5 -118.5l-190 -702q-73 -274 -223 -424 q-179 -179 -469 -179q-250 0 -390.5 127t-140.5 347zM770 1784q0 32 47 59t98 27q72 0 93 -64l65 -174q8 -19 8 -37q0 -25 -20 -39t-57 -14q-38 0 -59.5 11t-45.5 44l-104 132q-25 36 -25 55z" />
<glyph unicode="&#xda;" horiz-adv-x="1560" d="M176 451q0 98 33 227l170 643q17 58 54 90.5t87 32.5q63 0 93 -43.5t10 -118.5l-172 -639q-21 -99 -21 -158q0 -124 78 -199t223 -75q162 0 268 106q108 108 158 301l189 703q15 58 53 90.5t88 32.5q63 0 92.5 -43.5t9.5 -118.5l-190 -702q-73 -274 -223 -424 q-179 -179 -469 -179q-250 0 -390.5 127t-140.5 347zM983 1589q0 24 21 45l163 181q21 21 31 30t29 18t39 9q51 0 100 -27.5t49 -58.5q0 -30 -39 -57l-174 -132q-75 -55 -151 -55q-68 0 -68 47z" />
<glyph unicode="&#xdb;" horiz-adv-x="1560" d="M176 451q0 98 33 227l170 643q17 58 54 90.5t87 32.5q63 0 93 -43.5t10 -118.5l-172 -639q-21 -99 -21 -158q0 -124 78 -199t223 -75q162 0 268 106q108 108 158 301l189 703q15 58 53 90.5t88 32.5q63 0 92.5 -43.5t9.5 -118.5l-190 -702q-73 -274 -223 -424 q-179 -179 -469 -179q-250 0 -390.5 127t-140.5 347zM729 1581q0 23 29 55l176 166q60 60 131 60h68q82 0 114 -66l84 -160q23 -37 23 -53q0 -20 -16 -30.5t-42 -10.5q-51 0 -82 9.5t-63 45.5l-80 93l-131 -93q-79 -55 -158 -55q-53 0 -53 39z" />
<glyph unicode="&#xdc;" horiz-adv-x="1560" d="M176 451q0 98 33 227l170 643q17 58 54 90.5t87 32.5q63 0 93 -43.5t10 -118.5l-172 -639q-21 -99 -21 -158q0 -124 78 -199t223 -75q162 0 268 106q108 108 158 301l189 703q15 58 53 90.5t88 32.5q63 0 92.5 -43.5t9.5 -118.5l-190 -702q-73 -274 -223 -424 q-179 -179 -469 -179q-250 0 -390.5 127t-140.5 347zM725 1661l8 33q13 52 55.5 83t98.5 31q57 0 90.5 -35.5t21.5 -84.5l-8 -33q-12 -50 -53.5 -82.5t-97.5 -32.5q-59 0 -93 36t-22 85zM1133 1661l8 33q13 52 55 83t98 31q57 0 91 -35.5t22 -84.5l-8 -33q-12 -50 -54 -82.5 t-98 -32.5q-59 0 -92.5 36t-21.5 85z" />
<glyph unicode="&#xdd;" horiz-adv-x="1341" d="M229 1325q0 51 38 85t98 34q86 0 122 -98l222 -566l553 594q69 72 137 72q50 0 78 -28t28 -77q0 -55 -45 -100l-678 -706l-112 -422q-17 -58 -54.5 -90.5t-87.5 -32.5q-63 0 -92.5 43.5t-9.5 118.5l111 409l-283 670q-25 60 -25 94zM860 1589q0 24 21 45l163 181 q21 21 31 30t29 18t39 9q51 0 100 -27.5t49 -58.5q0 -30 -39 -57l-174 -132q-75 -55 -151 -55q-68 0 -68 47z" />
<glyph unicode="&#xde;" horiz-adv-x="1398" d="M80 152l313 1169q17 58 54.5 90.5t87.5 32.5q63 0 92.5 -43.5t9.5 -118.5l-19 -72h199q293 0 434 -141q107 -110 107 -283q0 -170 -91 -294.5t-248.5 -187t-361.5 -62.5h-299l-36 -129q-15 -58 -52.5 -90.5t-87.5 -32.5q-64 0 -93.5 44t-8.5 118zM418 463h252 q198 0 312 79.5t114 223.5q0 83 -56 139q-73 76 -233 76h-252z" />
<glyph unicode="&#xdf;" horiz-adv-x="1286" d="M51 150l236 878q63 225 178 340q144 141 362 141q194 0 310 -104t116 -266q0 -152 -94 -253t-258 -151q248 -86 248 -299q0 -189 -159 -315.5t-404 -126.5q-55 0 -82 27.5t-27 74.5q0 38 24 64.5t64 29.5q182 13 264 81t82 171q0 128 -178 187q-42 15 -63 36.5t-21 61.5 q0 81 86 107q135 39 208 110t73 172q0 83 -55.5 132.5t-143.5 49.5q-105 0 -179.5 -75.5t-111.5 -214.5l-237 -895q-15 -58 -51 -90.5t-86 -32.5q-63 0 -92 43.5t-9 116.5z" />
<glyph unicode="&#xe0;" horiz-adv-x="1193" d="M25 272q0 182 132.5 287t340.5 105q157 0 336 -54l6 19q12 54 12 90q0 164 -240 164q-103 0 -213 -31q-21 -6 -43 -6q-43 0 -70.5 28.5t-27.5 71.5q0 36 21.5 61.5t56.5 36.5q158 52 326 52q210 0 321 -87t111 -247q0 -56 -23 -158l-131 -491q-17 -59 -53.5 -91 t-85.5 -32q-64 0 -87 33t-18 81l11 39q-150 -166 -357 -166q-140 0 -232.5 81.5t-92.5 213.5zM272 301q0 -65 48 -105t129 -40q112 0 207 74.5t126 183.5l15 49q-125 41 -262 41q-116 0 -189.5 -55.5t-73.5 -147.5zM492 1450q0 32 47 59t98 27q71 0 92 -63l66 -175 q8 -19 8 -36q0 -25 -20.5 -39.5t-57.5 -14.5t-58 11.5t-46 44.5l-105 131q-24 34 -24 55z" />
<glyph unicode="&#xe1;" horiz-adv-x="1193" d="M25 272q0 182 132.5 287t340.5 105q157 0 336 -54l6 19q12 54 12 90q0 164 -240 164q-103 0 -213 -31q-21 -6 -43 -6q-43 0 -70.5 28.5t-27.5 71.5q0 36 21.5 61.5t56.5 36.5q158 52 326 52q210 0 321 -87t111 -247q0 -56 -23 -158l-131 -491q-17 -59 -53.5 -91 t-85.5 -32q-64 0 -87 33t-18 81l11 39q-150 -166 -357 -166q-140 0 -232.5 81.5t-92.5 213.5zM272 301q0 -65 48 -105t129 -40q112 0 207 74.5t126 183.5l15 49q-125 41 -262 41q-116 0 -189.5 -55.5t-73.5 -147.5zM702 1255q0 24 21 45l164 181q22 22 31 30t28 17.5t39 9.5 q51 0 100.5 -27.5t49.5 -58.5q0 -30 -39 -57l-174 -131q-76 -56 -152 -56q-68 0 -68 47z" />
<glyph unicode="&#xe2;" horiz-adv-x="1193" d="M25 272q0 182 132.5 287t340.5 105q157 0 336 -54l6 19q12 54 12 90q0 164 -240 164q-103 0 -213 -31q-21 -6 -43 -6q-43 0 -70.5 28.5t-27.5 71.5q0 36 21.5 61.5t56.5 36.5q158 52 326 52q210 0 321 -87t111 -247q0 -56 -23 -158l-131 -491q-17 -59 -53.5 -91 t-85.5 -32q-64 0 -87 33t-18 81l11 39q-150 -166 -357 -166q-140 0 -232.5 81.5t-92.5 213.5zM272 301q0 -65 48 -105t129 -40q112 0 207 74.5t126 183.5l15 49q-125 41 -262 41q-116 0 -189.5 -55.5t-73.5 -147.5zM451 1247q0 25 28 56l176 165q60 60 131 60h68 q83 0 115 -66l84 -159q22 -35 22 -54q0 -20 -15.5 -30.5t-41.5 -10.5q-51 0 -82.5 10t-63.5 46l-79 92l-131 -92q-81 -56 -158 -56q-53 0 -53 39z" />
<glyph unicode="&#xe3;" horiz-adv-x="1193" d="M25 272q0 182 132.5 287t340.5 105q157 0 336 -54l6 19q12 54 12 90q0 164 -240 164q-103 0 -213 -31q-21 -6 -43 -6q-43 0 -70.5 28.5t-27.5 71.5q0 36 21.5 61.5t56.5 36.5q158 52 326 52q210 0 321 -87t111 -247q0 -56 -23 -158l-131 -491q-17 -59 -53.5 -91 t-85.5 -32q-64 0 -87 33t-18 81l11 39q-150 -166 -357 -166q-140 0 -232.5 81.5t-92.5 213.5zM272 301q0 -65 48 -105t129 -40q112 0 207 74.5t126 183.5l15 49q-125 41 -262 41q-116 0 -189.5 -55.5t-73.5 -147.5zM395 1280q0 26 17 53q106 191 252 191q47 0 80 -15.5 t73 -48.5q43 -33 63 -44t44 -11q55 0 108 76q33 41 78 41q30 0 51 -19t21 -49q0 -28 -15 -55q-109 -189 -252 -189q-48 0 -80 15t-75 49q-43 33 -62.5 44t-42.5 11q-30 0 -54.5 -18t-55.5 -58q-31 -43 -76 -43q-31 0 -52.5 20t-21.5 50z" />
<glyph unicode="&#xe4;" horiz-adv-x="1193" d="M25 272q0 182 132.5 287t340.5 105q157 0 336 -54l6 19q12 54 12 90q0 164 -240 164q-103 0 -213 -31q-21 -6 -43 -6q-43 0 -70.5 28.5t-27.5 71.5q0 36 21.5 61.5t56.5 36.5q158 52 326 52q210 0 321 -87t111 -247q0 -56 -23 -158l-131 -491q-17 -59 -53.5 -91 t-85.5 -32q-64 0 -87 33t-18 81l11 39q-150 -166 -357 -166q-140 0 -232.5 81.5t-92.5 213.5zM272 301q0 -65 48 -105t129 -40q112 0 207 74.5t126 183.5l15 49q-125 41 -262 41q-116 0 -189.5 -55.5t-73.5 -147.5zM444 1327l9 33q13 52 55 83.5t98 31.5q57 0 91 -36t22 -85 l-8 -33q-12 -50 -54 -82.5t-98 -32.5q-59 0 -93 36t-22 85zM852 1327l8 33q13 52 55.5 83.5t98.5 31.5q57 0 90.5 -36t21.5 -85l-8 -33q-12 -50 -53.5 -82.5t-97.5 -32.5q-59 0 -93 36t-22 85z" />
<glyph unicode="&#xe5;" horiz-adv-x="1193" d="M25 272q0 182 132.5 287t340.5 105q157 0 336 -54l6 19q12 54 12 90q0 164 -240 164q-103 0 -213 -31q-21 -6 -43 -6q-43 0 -70.5 28.5t-27.5 71.5q0 36 21.5 61.5t56.5 36.5q158 52 326 52q210 0 321 -87t111 -247q0 -56 -23 -158l-131 -491q-17 -59 -53.5 -91 t-85.5 -32q-64 0 -87 33t-18 81l11 39q-150 -166 -357 -166q-140 0 -232.5 81.5t-92.5 213.5zM272 301q0 -65 48 -105t129 -40q112 0 207 74.5t126 183.5l15 49q-125 41 -262 41q-116 0 -189.5 -55.5t-73.5 -147.5zM580 1415q0 104 76 179t182 75q98 0 156.5 -56t58.5 -143 q0 -103 -76 -178t-182 -75q-98 0 -156.5 56t-58.5 142zM692 1417q0 -44 28.5 -73t76.5 -29q61 0 102 45.5t41 107.5q0 44 -28 73.5t-76 29.5q-61 0 -102.5 -46t-41.5 -108z" />
<glyph unicode="&#xe6;" horiz-adv-x="1941" d="M25 276q0 180 134 284t341 104q170 0 334 -54l6 19q12 54 12 90q0 164 -240 164q-108 0 -213 -31q-21 -6 -43 -6q-43 0 -70.5 28.5t-27.5 71.5q0 36 21.5 61.5t56.5 36.5q154 52 326 52q142 0 237 -49t133 -140q80 91 187.5 144t228.5 53q197 0 310.5 -118.5 t113.5 -301.5q0 -66 -12 -119q-24 -110 -123 -110h-695q-2 -6 -2 -21q6 -118 78 -187t201 -69q119 0 219 66q40 24 76 24q40 0 68 -27t28 -69q0 -54 -49 -84q-154 -113 -365 -113q-146 0 -253 58.5t-164 167.5q-101 -106 -228.5 -165t-271.5 -59q-164 0 -259 80.5t-95 218.5 zM272 303q0 -67 51 -107t144 -40q92 0 190.5 46t176.5 128q-11 53 -11 94q0 19 2 27q-129 53 -288 53q-116 0 -190.5 -55.5t-74.5 -145.5zM1065 618h563q8 36 8 76q0 91 -53.5 149t-161.5 58q-123 0 -218 -79t-138 -204z" />
<glyph unicode="&#xe7;" horiz-adv-x="1148" d="M90 457q0 130 52 250t138.5 206.5t204 138.5t244.5 52q234 0 375 -158q43 -47 43 -98q0 -48 -34 -81.5t-83 -33.5q-57 0 -86 39q-86 117 -235 117q-72 0 -140 -35.5t-118.5 -93.5t-81.5 -137.5t-31 -163.5q0 -122 74 -196.5t182 -74.5q118 0 227 82q41 29 76 29 q42 0 71 -30.5t29 -73.5q0 -48 -39 -84q-160 -133 -370 -136l-172 -249q-35 -54 -86 -54q-40 0 -77.5 27.5t-37.5 60.5q0 27 29 60l172 180q-148 47 -237 167.5t-89 289.5z" />
<glyph unicode="&#xe8;" horiz-adv-x="1228" d="M90 449q0 120 47.5 237t129 210t202.5 150.5t258 57.5q203 0 317.5 -118t114.5 -302q0 -49 -12 -119q-24 -110 -123 -110h-696v-21q5 -118 77 -187t201 -69q121 0 217 66q46 24 78 24q40 0 67 -27t27 -69q0 -55 -47 -84q-154 -113 -366 -113q-226 0 -359 128t-133 346z M352 618h561q11 33 11 76q0 91 -54 149t-161 58q-123 0 -219.5 -79t-137.5 -204zM522 1450q0 32 47.5 59t98.5 27q71 0 92 -63l65 -175q9 -21 9 -36q0 -25 -20.5 -39.5t-57.5 -14.5t-59 11.5t-46 44.5l-104 131q-25 36 -25 55z" />
<glyph unicode="&#xe9;" horiz-adv-x="1228" d="M90 449q0 120 47.5 237t129 210t202.5 150.5t258 57.5q203 0 317.5 -118t114.5 -302q0 -49 -12 -119q-24 -110 -123 -110h-696v-21q5 -118 77 -187t201 -69q121 0 217 66q46 24 78 24q40 0 67 -27t27 -69q0 -55 -47 -84q-154 -113 -366 -113q-226 0 -359 128t-133 346z M352 618h561q11 33 11 76q0 91 -54 149t-161 58q-123 0 -219.5 -79t-137.5 -204zM735 1255q0 24 21 45l164 181q22 22 31 30t28 17.5t39 9.5q51 0 100 -27.5t49 -58.5q0 -30 -39 -57l-174 -131q-76 -56 -151 -56q-68 0 -68 47z" />
<glyph unicode="&#xea;" horiz-adv-x="1228" d="M90 449q0 120 47.5 237t129 210t202.5 150.5t258 57.5q203 0 317.5 -118t114.5 -302q0 -49 -12 -119q-24 -110 -123 -110h-696v-21q5 -118 77 -187t201 -69q121 0 217 66q46 24 78 24q40 0 67 -27t27 -69q0 -55 -47 -84q-154 -113 -366 -113q-226 0 -359 128t-133 346z M352 618h561q11 33 11 76q0 91 -54 149t-161 58q-123 0 -219.5 -79t-137.5 -204zM483 1247q0 24 29 56l176 165q60 60 131 60h68q82 0 114 -66l84 -159q23 -37 23 -54q0 -20 -15.5 -30.5t-41.5 -10.5q-51 0 -82.5 10t-63.5 46l-80 92l-131 -92q-44 -31 -79 -43.5t-78 -12.5 q-54 0 -54 39z" />
<glyph unicode="&#xeb;" horiz-adv-x="1228" d="M90 449q0 120 47.5 237t129 210t202.5 150.5t258 57.5q203 0 317.5 -118t114.5 -302q0 -49 -12 -119q-24 -110 -123 -110h-696v-21q5 -118 77 -187t201 -69q121 0 217 66q46 24 78 24q40 0 67 -27t27 -69q0 -55 -47 -84q-154 -113 -366 -113q-226 0 -359 128t-133 346z M352 618h561q11 33 11 76q0 91 -54 149t-161 58q-123 0 -219.5 -79t-137.5 -204zM479 1327l8 33q13 52 55.5 83.5t98.5 31.5q57 0 91 -36t22 -85l-9 -33q-12 -50 -53.5 -82.5t-97.5 -32.5q-59 0 -93 36t-22 85zM887 1327l8 33q13 52 55.5 83.5t98.5 31.5q57 0 90.5 -36 t21.5 -85l-8 -33q-12 -50 -54 -82.5t-98 -32.5q-59 0 -92.5 36t-21.5 85z" />
<glyph unicode="&#xec;" horiz-adv-x="585" d="M63 150l222 819q15 60 51 92.5t86 32.5q64 0 92 -44t8 -118l-219 -819q-17 -59 -53.5 -91t-85.5 -32q-63 0 -92 43.5t-9 116.5zM211 1450q0 32 47 59t98 27q72 0 93 -63l65 -175q8 -19 8 -36q0 -25 -20.5 -39.5t-57.5 -14.5t-58 11.5t-46 44.5l-104 131q-25 36 -25 55z " />
<glyph unicode="&#xed;" horiz-adv-x="585" d="M63 150l222 819q15 60 51 92.5t86 32.5q64 0 92 -44t8 -118l-219 -819q-17 -59 -53.5 -91t-85.5 -32q-63 0 -92 43.5t-9 116.5zM424 1255q0 25 20 45l164 181q21 21 31 30t29 18t39 9q51 0 100 -27.5t49 -58.5q0 -30 -39 -57l-174 -131q-76 -56 -151 -56q-68 0 -68 47z " />
<glyph unicode="&#xee;" horiz-adv-x="585" d="M63 150l222 819q15 60 51 92.5t86 32.5q64 0 92 -44t8 -118l-219 -819q-17 -59 -53.5 -91t-85.5 -32q-63 0 -92 43.5t-9 116.5zM172 1247q0 24 29 56l176 165q60 60 131 60h67q83 0 115 -66l84 -159q23 -37 23 -54q0 -20 -16 -30.5t-42 -10.5q-51 0 -82 10t-63 46l-80 92 l-131 -92q-81 -56 -158 -56q-53 0 -53 39z" />
<glyph unicode="&#xef;" horiz-adv-x="585" d="M63 150l222 819q15 60 51 92.5t86 32.5q64 0 92 -44t8 -118l-219 -819q-17 -59 -53.5 -91t-85.5 -32q-63 0 -92 43.5t-9 116.5zM170 1327l8 33q13 52 55.5 83.5t98.5 31.5q57 0 90.5 -36t21.5 -85l-8 -33q-12 -50 -53.5 -82.5t-97.5 -32.5q-59 0 -93 36t-22 85zM578 1327 l8 33q13 52 55 83.5t98 31.5q57 0 91 -36t22 -85l-8 -33q-12 -50 -54 -82.5t-98 -32.5q-59 0 -92.5 36t-21.5 85z" />
<glyph unicode="&#xf0;" horiz-adv-x="1292" d="M84 444q0 149 75 276.5t201 201t271 73.5q182 0 311 -116l-145 325l-236 -90q-20 -8 -41 -8q-30 0 -49.5 20t-19.5 50q0 52 61 75l225 86l-4 11q-12 24 -12 55q0 46 33 77t80 31q39 0 66 -17.5t38 -45.5l10 -29l201 78q20 8 43 8q30 0 49 -18.5t19 -50.5 q0 -25 -16.5 -45.5t-45.5 -30.5l-192 -74l100 -237q92 -212 92 -410q0 -181 -73.5 -330.5t-216.5 -241.5t-330 -92q-218 0 -356 131t-138 338zM324 459q0 -125 75 -198t193 -73q98 0 180.5 51t128 132.5t45.5 173.5q0 117 -75 192.5t-201 75.5q-145 0 -245.5 -105 t-100.5 -249z" />
<glyph unicode="&#xf1;" horiz-adv-x="1263" d="M51 150l219 819q15 60 52 92.5t90 32.5t82.5 -31t27.5 -76l-12 -43q164 160 330 160q150 0 238.5 -87.5t88.5 -236.5q0 -64 -32 -190l-127 -477q-15 -58 -51.5 -90.5t-86.5 -32.5q-63 0 -91.5 43t-8.5 117l121 450q16 56 16 109q0 81 -49 125.5t-139 44.5 q-103 0 -183.5 -75t-113.5 -196l-133 -495q-15 -58 -51 -90.5t-86 -32.5q-63 0 -92 43.5t-9 116.5zM440 1280q0 26 17 53q106 191 252 191q47 0 80 -15.5t73 -48.5q43 -33 63 -44t44 -11q55 0 108 76q33 41 78 41q30 0 51 -19t21 -49q0 -28 -15 -55q-109 -189 -251 -189 q-48 0 -80.5 15t-75.5 49q-43 33 -62.5 44t-42.5 11q-30 0 -54.5 -18t-55.5 -58q-31 -43 -76 -43q-31 0 -52.5 20t-21.5 50z" />
<glyph unicode="&#xf2;" horiz-adv-x="1323" d="M92 469q0 122 50 238t134.5 203.5t202 140.5t244.5 53q229 0 368.5 -139t139.5 -357q0 -122 -50.5 -238t-135.5 -202.5t-202 -139.5t-243 -53q-229 0 -368.5 138.5t-139.5 355.5zM338 477q0 -134 75.5 -210.5t200.5 -76.5q100 0 187.5 62.5t135.5 157t48 192.5 q0 134 -75.5 210.5t-200.5 76.5q-102 0 -189 -63t-134.5 -157.5t-47.5 -191.5zM567 1450q0 32 47.5 59t98.5 27q71 0 92 -63l65 -175q9 -21 9 -36q0 -25 -20.5 -39.5t-57.5 -14.5t-59 11.5t-46 44.5l-104 131q-25 36 -25 55z" />
<glyph unicode="&#xf3;" horiz-adv-x="1323" d="M92 469q0 122 50 238t134.5 203.5t202 140.5t244.5 53q229 0 368.5 -139t139.5 -357q0 -122 -50.5 -238t-135.5 -202.5t-202 -139.5t-243 -53q-229 0 -368.5 138.5t-139.5 355.5zM338 477q0 -134 75.5 -210.5t200.5 -76.5q100 0 187.5 62.5t135.5 157t48 192.5 q0 134 -75.5 210.5t-200.5 76.5q-102 0 -189 -63t-134.5 -157.5t-47.5 -191.5zM780 1255q0 24 21 45l164 181q22 22 31 30t28 17.5t39 9.5q51 0 100 -27.5t49 -58.5t-38 -57l-175 -131q-76 -56 -151 -56q-68 0 -68 47z" />
<glyph unicode="&#xf4;" horiz-adv-x="1323" d="M92 469q0 122 50 238t134.5 203.5t202 140.5t244.5 53q229 0 368.5 -139t139.5 -357q0 -122 -50.5 -238t-135.5 -202.5t-202 -139.5t-243 -53q-229 0 -368.5 138.5t-139.5 355.5zM338 477q0 -134 75.5 -210.5t200.5 -76.5q100 0 187.5 62.5t135.5 157t48 192.5 q0 134 -75.5 210.5t-200.5 76.5q-102 0 -189 -63t-134.5 -157.5t-47.5 -191.5zM528 1247q0 24 29 56l176 165q60 60 131 60h68q83 0 115 -66l83 -159q23 -37 23 -54q0 -20 -15.5 -30.5t-41.5 -10.5q-51 0 -82.5 10t-63.5 46l-80 92l-131 -92q-44 -31 -79 -43.5t-78 -12.5 q-54 0 -54 39z" />
<glyph unicode="&#xf5;" horiz-adv-x="1323" d="M92 469q0 122 50 238t134.5 203.5t202 140.5t244.5 53q229 0 368.5 -139t139.5 -357q0 -122 -50.5 -238t-135.5 -202.5t-202 -139.5t-243 -53q-229 0 -368.5 138.5t-139.5 355.5zM338 477q0 -134 75.5 -210.5t200.5 -76.5q100 0 187.5 62.5t135.5 157t48 192.5 q0 134 -75.5 210.5t-200.5 76.5q-102 0 -189 -63t-134.5 -157.5t-47.5 -191.5zM475 1280q0 26 17 53q106 191 251 191q47 0 81 -16t73 -48q43 -33 63 -44t44 -11q55 0 108 76q33 41 78 41q30 0 51 -19t21 -49q0 -28 -15 -55q-109 -189 -252 -189q-48 0 -80 15t-75 49 q-43 33 -62.5 44t-42.5 11q-30 0 -54.5 -18t-55.5 -58q-31 -43 -76 -43q-31 0 -52.5 20t-21.5 50z" />
<glyph unicode="&#xf6;" horiz-adv-x="1323" d="M92 469q0 122 50 238t134.5 203.5t202 140.5t244.5 53q229 0 368.5 -139t139.5 -357q0 -122 -50.5 -238t-135.5 -202.5t-202 -139.5t-243 -53q-229 0 -368.5 138.5t-139.5 355.5zM338 477q0 -134 75.5 -210.5t200.5 -76.5q100 0 187.5 62.5t135.5 157t48 192.5 q0 134 -75.5 210.5t-200.5 76.5q-102 0 -189 -63t-134.5 -157.5t-47.5 -191.5zM524 1327l8 33q13 52 55.5 83.5t98.5 31.5q57 0 91 -36t22 -85l-8 -33q-12 -50 -54 -82.5t-98 -32.5q-59 0 -93 36t-22 85zM932 1327l8 33q13 52 55.5 83.5t98.5 31.5q57 0 90.5 -36t21.5 -85 l-8 -33q-12 -50 -53.5 -82.5t-97.5 -32.5q-59 0 -93 36t-22 85z" />
<glyph unicode="&#xf7;" horiz-adv-x="1298" d="M174 721q0 43 32 74.5t75 31.5h829q44 0 75.5 -31.5t31.5 -74.5t-31.5 -75t-75.5 -32h-829q-43 0 -75 32t-32 75zM440 274l2 21q6 60 52 100.5t110 40.5q56 0 90.5 -34.5t30.5 -86.5l-2 -20q-6 -60 -52 -100.5t-110 -40.5q-55 0 -90 33.5t-31 86.5zM668 1126l2 21 q6 60 51.5 100.5t109.5 40.5q56 0 90.5 -34.5t30.5 -86.5l-2 -20q-6 -60 -52 -100.5t-110 -40.5q-55 0 -89.5 33.5t-30.5 86.5z" />
<glyph unicode="&#xf8;" horiz-adv-x="1323" d="M37 49q0 37 41 78l86 72q-72 112 -72 270q0 122 50 238t134.5 203.5t202 140.5t244.5 53q191 0 319 -103l76 68q44 35 82 35q34 0 55 -19.5t21 -50.5q0 -37 -41 -78l-80 -67q76 -124 76 -281q0 -122 -50.5 -238t-135.5 -202.5t-202 -139.5t-243 -53q-195 0 -330 107 l-75 -68q-38 -34 -82 -34q-34 0 -55 19t-21 50zM330 477q0 -57 16 -110l533 479q-63 51 -170 51q-102 0 -191 -63.5t-138.5 -160t-49.5 -196.5zM436 236q70 -54 178 -54q101 0 189.5 62t139 159t50.5 199q0 61 -20 119z" />
<glyph unicode="&#xf9;" horiz-adv-x="1265" d="M98 301q0 61 33 191l127 477q15 60 51 92.5t86 32.5q64 0 92.5 -44t8.5 -118l-121 -451q-15 -62 -15 -108q0 -81 49.5 -125.5t137.5 -44.5q103 0 183.5 74.5t113.5 195.5l133 496q15 60 51 92.5t86 32.5q64 0 92 -44t8 -118l-217 -819q-17 -59 -54 -91t-89 -32t-82.5 30 t-28.5 74l13 45q-162 -162 -328 -162q-151 0 -240.5 87.5t-89.5 236.5zM539 1450q0 32 47 59t98 27q71 0 92 -63l66 -175q8 -19 8 -36q0 -25 -20.5 -39.5t-57.5 -14.5t-58 11.5t-46 44.5l-105 131q-24 34 -24 55z" />
<glyph unicode="&#xfa;" horiz-adv-x="1265" d="M98 301q0 61 33 191l127 477q15 60 51 92.5t86 32.5q64 0 92.5 -44t8.5 -118l-121 -451q-15 -62 -15 -108q0 -81 49.5 -125.5t137.5 -44.5q103 0 183.5 74.5t113.5 195.5l133 496q15 60 51 92.5t86 32.5q64 0 92 -44t8 -118l-217 -819q-17 -59 -54 -91t-89 -32t-82.5 30 t-28.5 74l13 45q-162 -162 -328 -162q-151 0 -240.5 87.5t-89.5 236.5zM750 1255q0 25 20 45l164 181q22 22 31 30t28 17.5t39 9.5q51 0 100.5 -27.5t49.5 -58.5q0 -30 -39 -57l-174 -131q-76 -56 -152 -56q-67 0 -67 47z" />
<glyph unicode="&#xfb;" horiz-adv-x="1265" d="M98 301q0 61 33 191l127 477q15 60 51 92.5t86 32.5q64 0 92.5 -44t8.5 -118l-121 -451q-15 -62 -15 -108q0 -81 49.5 -125.5t137.5 -44.5q103 0 183.5 74.5t113.5 195.5l133 496q15 60 51 92.5t86 32.5q64 0 92 -44t8 -118l-217 -819q-17 -59 -54 -91t-89 -32t-82.5 30 t-28.5 74l13 45q-162 -162 -328 -162q-151 0 -240.5 87.5t-89.5 236.5zM496 1247q0 25 28 56l176 165q60 60 131 60h68q83 0 115 -66l84 -159q22 -35 22 -54q0 -20 -15.5 -30.5t-41.5 -10.5q-51 0 -82 10t-63 46l-80 92l-131 -92q-81 -56 -158 -56q-53 0 -53 39z" />
<glyph unicode="&#xfc;" horiz-adv-x="1265" d="M98 301q0 61 33 191l127 477q15 60 51 92.5t86 32.5q64 0 92.5 -44t8.5 -118l-121 -451q-15 -62 -15 -108q0 -81 49.5 -125.5t137.5 -44.5q103 0 183.5 74.5t113.5 195.5l133 496q15 60 51 92.5t86 32.5q64 0 92 -44t8 -118l-217 -819q-17 -59 -54 -91t-89 -32t-82.5 30 t-28.5 74l13 45q-162 -162 -328 -162q-151 0 -240.5 87.5t-89.5 236.5zM492 1327l8 33q13 52 55 83.5t98 31.5q57 0 91 -36t22 -85l-8 -33q-12 -50 -54 -82.5t-98 -32.5q-59 0 -92.5 36t-21.5 85zM899 1327l8 33q13 52 55.5 83.5t98.5 31.5q57 0 91 -36t22 -85l-9 -33 q-12 -50 -53.5 -82.5t-97.5 -32.5q-59 0 -93 36t-22 85z" />
<glyph unicode="&#xfd;" horiz-adv-x="1198" d="M-94 -195q0 44 30 76.5t70 32.5q15 0 55 -12q66 -25 109 -25q89 0 174 121l-151 915q-5 45 -5 62q0 51 35 85t88 34q51 0 85 -30t38 -81l96 -709l451 738q49 82 129 82q48 0 78.5 -27t30.5 -72q0 -32 -33 -86l-606 -940q-107 -165 -209.5 -234t-231.5 -69q-96 0 -157 31 q-76 31 -76 108zM692 1255q0 24 21 45l164 181q22 22 31 30t28 17.5t39 9.5q51 0 100 -27.5t49 -58.5q0 -30 -39 -57l-174 -131q-76 -56 -151 -56q-68 0 -68 47z" />
<glyph unicode="&#xfe;" horiz-adv-x="1368" d="M-37 -178l418 1560q15 58 51.5 90.5t87.5 32.5q63 0 90.5 -42.5t7.5 -116.5l-110 -408q80 80 163 123t183 43q185 0 303.5 -126t118.5 -337q0 -140 -50.5 -265t-133.5 -211.5t-192 -137t-224 -50.5q-249 0 -367 216l-108 -408q-15 -58 -51.5 -90.5t-86.5 -32.5 q-64 0 -92 43t-8 117zM373 463q0 -119 76 -196t196 -77q153 0 263 127t110 308q0 122 -70 194t-186 72q-98 0 -188 -58.5t-145.5 -158t-55.5 -211.5z" />
<glyph unicode="&#xff;" horiz-adv-x="1198" d="M-94 -195q0 44 30 76.5t70 32.5q15 0 55 -12q66 -25 109 -25q89 0 174 121l-151 915q-5 45 -5 62q0 51 35 85t88 34q51 0 85 -30t38 -81l96 -709l451 738q49 82 129 82q48 0 78.5 -27t30.5 -72q0 -32 -33 -86l-606 -940q-107 -165 -209.5 -234t-231.5 -69q-96 0 -157 31 q-76 31 -76 108zM436 1327l8 33q13 52 55.5 83.5t98.5 31.5q57 0 91 -36t22 -85l-9 -33q-12 -50 -53.5 -82.5t-97.5 -32.5q-59 0 -93 36t-22 85zM844 1327l8 33q13 52 55.5 83.5t98.5 31.5q57 0 90.5 -36t21.5 -85l-8 -33q-12 -50 -54 -82.5t-98 -32.5q-59 0 -92.5 36 t-21.5 85z" />
<glyph unicode="&#x152;" horiz-adv-x="2244" d="M154 604q0 162 59 305.5t172 255.5q269 269 743 269h1098q46 0 79.5 -33.5t33.5 -79.5q0 -47 -33.5 -80t-79.5 -33h-694l-98 -374h538q47 0 81 -33t34 -80q0 -46 -34 -78.5t-81 -32.5h-600l-104 -385h643q47 0 80.5 -33t33.5 -79q0 -47 -33.5 -80t-80.5 -33h-1043 q-372 0 -567 195q-147 147 -147 409zM416 614q0 -166 98 -264q121 -121 375 -121h129l262 975h-180q-160 0 -296 -49.5t-231 -144.5q-157 -157 -157 -396z" />
<glyph unicode="&#x153;" horiz-adv-x="2115" d="M92 469q0 123 49.5 239t133 203t201 140t245.5 53q157 0 267 -68.5t159 -183.5q81 114 200 183t269 69q203 0 317.5 -118t114.5 -302q0 -66 -12 -121q-25 -108 -121 -108h-696q-2 -6 -2 -21q5 -118 77 -187t201 -69q117 0 217 66q46 24 78 24q40 0 68 -27t28 -69 q0 -54 -49 -84q-155 -113 -364 -113q-150 0 -258 62t-158 174q-81 -108 -198 -172t-259 -64q-228 0 -368 139t-140 355zM338 479q0 -131 75 -210t199 -79q103 0 190 59.5t135 153t48 195.5q0 133 -75 212t-199 79q-104 0 -191 -60.5t-134.5 -154.5t-47.5 -195zM1241 618h561 q10 30 10 76q0 91 -54 149t-161 58q-123 0 -218 -79t-138 -204z" />
<glyph unicode="&#x178;" horiz-adv-x="1341" d="M229 1325q0 51 38 85t98 34q86 0 122 -98l222 -566l553 594q69 72 137 72q50 0 78 -28t28 -77q0 -55 -45 -100l-678 -706l-112 -422q-17 -58 -54.5 -90.5t-87.5 -32.5q-63 0 -92.5 43.5t-9.5 118.5l111 409l-283 670q-25 60 -25 94zM602 1661l8 33q13 52 55.5 83t98.5 31 q57 0 91 -35.5t22 -84.5l-9 -33q-12 -50 -53.5 -82.5t-97.5 -32.5q-59 0 -93 36t-22 85zM1010 1661l8 33q13 52 55 83t98 31q57 0 91 -35.5t22 -84.5l-8 -33q-12 -50 -54 -82.5t-98 -32.5q-59 0 -92.5 36t-21.5 85z" />
<glyph unicode="&#x2c6;" horiz-adv-x="1024" d="M401 1247q0 24 29 56l176 165q60 60 131 60h68q83 0 115 -66l84 -159q22 -35 22 -54q0 -20 -15.5 -30.5t-41.5 -10.5q-51 0 -82.5 10t-63.5 46l-80 92l-131 -92q-44 -31 -79 -43.5t-78 -12.5q-54 0 -54 39z" />
<glyph unicode="&#x2dc;" horiz-adv-x="1024" d="M336 1280q0 27 16 53q106 191 252 191q47 0 81 -16t73 -48q32 -24 44 -32.5t28.5 -15.5t33.5 -7q56 0 109 76q33 41 78 41q30 0 50.5 -19t20.5 -49t-14 -55q-109 -189 -252 -189q-48 0 -80.5 15t-75.5 49q-32 24 -44 32.5t-28 15.5t-32 7q-30 0 -55.5 -18t-55.5 -58 q-31 -43 -75 -43q-31 0 -52.5 20t-21.5 50z" />
<glyph unicode="&#x2000;" horiz-adv-x="946" />
<glyph unicode="&#x2001;" horiz-adv-x="1892" />
<glyph unicode="&#x2002;" horiz-adv-x="946" />
<glyph unicode="&#x2003;" horiz-adv-x="1892" />
<glyph unicode="&#x2004;" horiz-adv-x="630" />
<glyph unicode="&#x2005;" horiz-adv-x="473" />
<glyph unicode="&#x2006;" horiz-adv-x="315" />
<glyph unicode="&#x2007;" horiz-adv-x="315" />
<glyph unicode="&#x2008;" horiz-adv-x="236" />
<glyph unicode="&#x2009;" horiz-adv-x="378" />
<glyph unicode="&#x200a;" horiz-adv-x="105" />
<glyph unicode="&#x2010;" horiz-adv-x="841" d="M131 627q0 51 35.5 87t85.5 36h385q51 0 87 -36t36 -87q0 -50 -36 -85.5t-87 -35.5h-385q-50 0 -85.5 36t-35.5 85z" />
<glyph unicode="&#x2011;" horiz-adv-x="841" d="M131 627q0 51 35.5 87t85.5 36h385q51 0 87 -36t36 -87q0 -50 -36 -85.5t-87 -35.5h-385q-50 0 -85.5 36t-35.5 85z" />
<glyph unicode="&#x2012;" horiz-adv-x="841" d="M131 627q0 51 35.5 87t85.5 36h385q51 0 87 -36t36 -87q0 -50 -36 -85.5t-87 -35.5h-385q-50 0 -85.5 36t-35.5 85z" />
<glyph unicode="&#x2013;" horiz-adv-x="1085" d="M131 627q0 50 35 84t86 34h631q50 0 85.5 -34.5t35.5 -83.5t-35.5 -83t-85.5 -34h-631q-51 0 -86 34t-35 83z" />
<glyph unicode="&#x2014;" horiz-adv-x="1843" d="M131 627q0 50 35 84t86 34h1388q50 0 85.5 -34.5t35.5 -83.5t-35.5 -83t-85.5 -34h-1388q-51 0 -86 34t-35 83z" />
<glyph unicode="&#x2018;" horiz-adv-x="600" d="M264 1034l8 35q44 181 162 279q45 39 104 64t113 30q32 1 48 -15t16 -41q0 -44 -58 -57q-174 -43 -192 -182q44 -12 67.5 -45t12.5 -88l-6 -29q-14 -59 -56 -95t-100 -36q-72 0 -104 49t-15 131z" />
<glyph unicode="&#x2019;" horiz-adv-x="600" d="M174 911q0 46 57 58q175 43 193 182q-44 12 -67.5 45t-12.5 88l6 29q14 59 56 95t100 36q72 0 104 -49t15 -131l-9 -35q-45 -182 -161 -279q-45 -39 -104 -64t-113 -30q-32 -1 -48 14.5t-16 40.5z" />
<glyph unicode="&#x201a;" horiz-adv-x="600" d="M-121 -240q0 45 58 58q174 43 192 182q-44 12 -67.5 45t-12.5 88l6 29q14 59 56 95t100 36q72 0 104 -49t15 -131l-8 -35q-44 -181 -162 -279q-45 -39 -104 -64t-113 -30q-32 -1 -48 14.5t-16 40.5z" />
<glyph unicode="&#x201c;" horiz-adv-x="1073" d="M264 1034l8 35q44 181 162 279q45 39 104 64t113 30q32 1 48 -15t16 -41q0 -44 -58 -57q-174 -43 -192 -182q44 -12 67.5 -45t12.5 -88l-6 -29q-14 -59 -56 -95t-100 -36q-72 0 -104 49t-15 131zM739 1034l9 35q45 182 161 279q45 39 104 64t113 30q32 1 48 -15t16 -41 q0 -45 -57 -57q-175 -43 -193 -182q44 -12 67.5 -45t12.5 -88l-6 -29q-14 -59 -56 -95t-100 -36q-72 0 -104 49t-15 131z" />
<glyph unicode="&#x201d;" horiz-adv-x="1073" d="M174 911q0 46 57 58q175 43 193 182q-44 12 -67.5 45t-12.5 88l6 29q14 59 56 95t100 36q72 0 104 -49t15 -131l-9 -35q-45 -182 -161 -279q-45 -39 -104 -64t-113 -30q-32 -1 -48 14.5t-16 40.5zM649 911q0 45 58 58q174 43 192 182q-44 12 -67.5 45t-12.5 88l6 29 q14 59 56 95t100 36q72 0 104 -49t15 -131l-8 -35q-44 -181 -162 -279q-45 -39 -104 -64t-113 -30q-32 -1 -48 14.5t-16 40.5z" />
<glyph unicode="&#x201e;" horiz-adv-x="1075" d="M-121 -240q0 45 58 58q174 43 192 182q-44 12 -67.5 45t-12.5 88l6 29q14 59 56 95t100 36q72 0 104 -49t15 -131l-8 -35q-44 -181 -162 -279q-45 -39 -104 -64t-113 -30q-32 -1 -48 14.5t-16 40.5zM354 -240q0 45 58 58q174 43 192 182q-44 12 -67.5 45t-12.5 88l6 29 q14 59 56 95t100 36q72 0 104 -49t15 -131l-8 -35q-44 -181 -162 -279q-45 -39 -104 -64t-113 -30q-32 -1 -48 14.5t-16 40.5z" />
<glyph unicode="&#x2022;" horiz-adv-x="1005" d="M264 657q0 90 42 173.5t119 137.5t169 54q105 0 167 -64t62 -170q0 -90 -41.5 -173.5t-117.5 -137t-168 -53.5q-107 0 -169.5 63t-62.5 170z" />
<glyph unicode="&#x2026;" horiz-adv-x="1669" d="M43 123l8 33q12 60 56.5 95.5t107.5 35.5q65 0 100 -38.5t25 -96.5l-8 -31q-10 -60 -55.5 -95.5t-108.5 -35.5q-65 0 -100 37.5t-25 95.5zM582 123l8 33q12 60 56.5 95.5t107.5 35.5q65 0 100 -38.5t25 -96.5l-9 -31q-10 -60 -55 -95.5t-108 -35.5q-65 0 -100 37.5 t-25 95.5zM1120 123l8 33q12 60 56.5 95.5t107.5 35.5q65 0 100 -38.5t25 -96.5l-8 -31q-10 -60 -55.5 -95.5t-108.5 -35.5q-65 0 -100 37.5t-25 95.5z" />
<glyph unicode="&#x202f;" horiz-adv-x="378" />
<glyph unicode="&#x2039;" horiz-adv-x="724" d="M104 510q0 35 33 65l361 355q20 17 31 25.5t30.5 17t38.5 8.5q42 0 68 -25t26 -67q0 -48 -37 -78l-317 -307l133 -266q16 -40 16 -66q0 -43 -31 -71.5t-75 -28.5q-67 0 -98 63l-152 301q-2 5 -9 18t-9.5 19t-5.5 16.5t-3 20.5z" />
<glyph unicode="&#x203a;" horiz-adv-x="724" d="M29 178q0 48 37 78l317 307l-133 266q-17 43 -17 66q0 42 32 71t75 29q67 0 98 -63l152 -301l7 -14t7.5 -15.5t5.5 -13.5t4.5 -15.5t1.5 -15.5q0 -36 -32 -65l-361 -355q-55 -51 -100 -51q-42 0 -68 25t-26 67z" />
<glyph unicode="&#x205f;" horiz-adv-x="473" />
<glyph unicode="&#x20ac;" horiz-adv-x="1452" d="M70 549q0 36 26 62t62 26h102q9 90 33 172h-43q-37 0 -62.5 25.5t-25.5 60.5q0 37 25.5 62.5t62.5 25.5h96q91 214 266.5 344.5t401.5 130.5q309 0 448 -229q33 -54 33 -92q0 -51 -36 -85t-91 -34q-62 0 -96 51q-44 78 -103.5 120t-171.5 42q-119 0 -213.5 -65.5 t-156.5 -182.5h360q37 0 62.5 -25.5t25.5 -62.5q0 -35 -25.5 -60.5t-62.5 -25.5h-426q-24 -67 -39 -172h373q36 0 62 -26t26 -62q0 -37 -25.5 -62.5t-62.5 -25.5h-375q17 -120 92 -189t189 -69q83 0 150.5 29t133.5 92q39 34 84 34q48 0 82.5 -31t34.5 -77q0 -54 -49 -96 q-198 -179 -440 -179q-226 0 -371.5 131t-167.5 355h-100q-37 0 -62.5 25.5t-25.5 62.5z" />
<glyph unicode="&#x2122;" horiz-adv-x="1427" d="M246 1378q0 24 16 40t41 16h418q23 0 39 -16.5t16 -39.5t-16 -39t-39 -16h-164l-129 -473q-7 -27 -26 -42t-44 -15q-29 0 -43.5 20t-5.5 55l125 455h-131q-25 0 -41 16t-16 39zM764 870l139 508q6 29 23.5 45.5t42.5 16.5h8q38 0 55 -47l113 -291l258 299q36 39 74 39h8 q30 0 43 -22t4 -58l-139 -508q-18 -57 -66 -57q-29 0 -42 20.5t-3 54.5l92 342l-200 -215q-26 -32 -64 -32q-39 0 -53 36l-82 213l-101 -362q-15 -57 -65 -57q-30 0 -42.5 20t-2.5 55z" />
<glyph unicode="&#x25fc;" horiz-adv-x="1095" d="M0 0v1096h1096v-1096h-1096z" />
<glyph unicode="&#xfb01;" horiz-adv-x="1398" d="M106 150l195 718h-29q-38 5 -66 33t-28 74q0 45 31 75.5t74 30.5h75l21 88q90 336 412 336q62 0 116 -14q38 -8 61 -33t23 -65q0 -57 -35 -88.5t-79 -22.5q-41 12 -80 12q-137 0 -179 -151l-16 -62h174q44 0 74.5 -30.5t30.5 -75.5q0 -46 -30.5 -76.5t-74.5 -30.5h-227 l-203 -755q-17 -59 -53.5 -91t-85.5 -32q-63 0 -92 43.5t-9 116.5zM874 150l222 819q15 60 51 92.5t86 32.5q64 0 92 -44t8 -118l-219 -819q-17 -59 -53.5 -91t-85.5 -32q-63 0 -92 43.5t-9 116.5zM1182 1354l6 24q12 53 56.5 84t105.5 31q60 0 95 -34t25 -83l-6 -24 q-12 -52 -56.5 -83.5t-104.5 -31.5q-61 0 -97 33.5t-24 83.5z" />
<glyph unicode="&#xfb02;" horiz-adv-x="1398" d="M106 150l195 718h-29q-38 5 -66 33t-28 74q0 45 31 75.5t74 30.5h75l21 88q90 336 412 336q62 0 116 -14q38 -8 61 -33t23 -65q0 -57 -35 -88.5t-79 -22.5q-41 12 -80 12q-137 0 -179 -151l-16 -62h174q44 0 74.5 -30.5t30.5 -75.5q0 -46 -30.5 -76.5t-74.5 -30.5h-227 l-203 -755q-17 -59 -53.5 -91t-85.5 -32q-63 0 -92 43.5t-9 116.5zM874 150l332 1232q15 58 52 90.5t88 32.5q63 0 90.5 -42.5t7.5 -116.5l-330 -1233q-17 -59 -53.5 -91t-85.5 -32q-63 0 -92 43.5t-9 116.5z" />
<glyph unicode="&#xfb03;" horiz-adv-x="2209" d="M106 150l195 718h-29q-38 5 -66 33t-28 74q0 45 31 75.5t74 30.5h75l21 88q90 336 412 336q62 0 116 -14q38 -8 61 -33t23 -65q0 -57 -35 -88.5t-79 -22.5q-41 12 -80 12q-137 0 -179 -151l-16 -62h174q44 0 74.5 -30.5t30.5 -75.5q0 -46 -30.5 -76.5t-74.5 -30.5h-227 l-203 -755q-17 -59 -53.5 -91t-85.5 -32q-63 0 -92 43.5t-9 116.5zM918 150l194 718h-29q-38 5 -66 33t-28 74q0 45 31 75.5t74 30.5h75l21 88q90 336 412 336q62 0 116 -14q38 -8 61 -33t23 -65q0 -57 -35 -88.5t-79 -22.5q-41 12 -80 12q-136 0 -178 -151l-17 -62h174 q45 0 75 -30.5t30 -75.5q0 -46 -30.5 -76.5t-74.5 -30.5h-227l-203 -755q-17 -59 -53.5 -91t-85.5 -32q-63 0 -91.5 43t-8.5 117zM1686 150l221 819q15 60 51 92.5t86 32.5q64 0 92 -44t8 -118l-219 -819q-17 -59 -53.5 -91t-85.5 -32q-63 0 -91.5 43t-8.5 117zM1993 1354 l6 24q12 53 56.5 84t105.5 31q60 0 95 -34t25 -83l-6 -24q-12 -52 -56.5 -83.5t-104.5 -31.5q-61 0 -97 33.5t-24 83.5z" />
<glyph unicode="&#xfb04;" horiz-adv-x="2209" d="M106 150l195 718h-29q-38 5 -66 33t-28 74q0 45 31 75.5t74 30.5h75l21 88q90 336 412 336q62 0 116 -14q38 -8 61 -33t23 -65q0 -57 -35 -88.5t-79 -22.5q-41 12 -80 12q-137 0 -179 -151l-16 -62h174q44 0 74.5 -30.5t30.5 -75.5q0 -46 -30.5 -76.5t-74.5 -30.5h-227 l-203 -755q-17 -59 -53.5 -91t-85.5 -32q-63 0 -92 43.5t-9 116.5zM918 150l194 718h-29q-38 5 -66 33t-28 74q0 45 31 75.5t74 30.5h75l21 88q90 336 412 336q62 0 116 -14q38 -8 61 -33t23 -65q0 -57 -35 -88.5t-79 -22.5q-41 12 -80 12q-136 0 -178 -151l-17 -62h174 q45 0 75 -30.5t30 -75.5q0 -46 -30.5 -76.5t-74.5 -30.5h-227l-203 -755q-17 -59 -53.5 -91t-85.5 -32q-63 0 -91.5 43t-8.5 117zM1686 150l331 1232q15 58 52 90.5t88 32.5q63 0 90.5 -42.5t7.5 -116.5l-330 -1233q-17 -59 -53.5 -91t-85.5 -32q-63 0 -91.5 43t-8.5 117z " />
</font>
</defs>
</svg>
