<?xml version="1.0" standalone="no"?>
<!DOCTYPE svg PUBLIC "-//W3C//DTD SVG 1.1//EN" "http://www.w3.org/Graphics/SVG/1.1/DTD/svg11.dtd" >
<svg xmlns="http://www.w3.org/2000/svg" xmlns:xlink="http://www.w3.org/1999/xlink" version="1.1">
<metadata></metadata>
<defs>
<font id="gotham_roundedmedium" horiz-adv-x="1202" >
<font-face units-per-em="2048" ascent="1638" descent="-410" />
<missing-glyph horiz-adv-x="614" />
<glyph horiz-adv-x="0" />
<glyph horiz-adv-x="682" />
<glyph unicode=" "  horiz-adv-x="614" />
<glyph unicode="&#x09;" horiz-adv-x="614" />
<glyph unicode="&#xa0;" horiz-adv-x="614" />
<glyph unicode="!" horiz-adv-x="618" d="M164 131v21q0 60 41.5 100.5t103.5 40.5q63 0 104.5 -40.5t41.5 -100.5v-21q0 -60 -41.5 -100.5t-104.5 -40.5q-62 0 -103.5 40.5t-41.5 100.5zM164 1352q-3 37 17 62.5t55 25.5h147q35 0 56 -25.5t18 -62.5l-72 -836q-3 -34 -24 -54t-52 -20t-50.5 20t-22.5 54z" />
<glyph unicode="&#x22;" horiz-adv-x="997" d="M127 887l37 438q3 50 35 82.5t82 32.5h79q30 0 49 -18t19 -50q0 -13 -8 -45l-150 -455q-23 -63 -73 -63q-31 0 -51 21.5t-19 56.5zM578 887l34 438q3 50 35 82.5t82 32.5h82q29 0 47.5 -18.5t18.5 -49.5q0 -9 -9 -45l-149 -455q-23 -63 -74 -63q-30 0 -50 22t-17 56z" />
<glyph unicode="#" horiz-adv-x="1433" d="M70 436q0 43 31 75t75 32h131l62 356h-119q-43 0 -75 32t-32 75t32 74.5t75 31.5h156l40 244q6 39 36.5 63.5t70.5 24.5q50 0 81 -38.5t25 -86.5l-36 -207h321l41 244q6 39 36.5 63.5t72.5 24.5q49 0 80.5 -38.5t23.5 -86.5l-35 -207h94q43 0 75 -31t32 -75 q0 -43 -32 -75t-75 -32h-131l-61 -356h117q44 0 75 -31.5t31 -75.5q0 -43 -31 -74.5t-75 -31.5h-154l-43 -252q-6 -38 -36 -63t-70 -25q-50 0 -82.5 38.5t-24.5 86.5l39 215h-322l-43 -252q-6 -36 -35.5 -62t-72.5 -26q-50 0 -81 36.5t-24 88.5l37 215h-94q-44 0 -75 31 t-31 75zM526 543h320l61 356h-319z" />
<glyph unicode="$" horiz-adv-x="1314" d="M109 262q0 47 32.5 80t79.5 33q38 0 68 -23q151 -110 303 -137v403q-230 60 -334 156.5t-104 265.5q0 163 118.5 270t311.5 122v43q0 37 26.5 62.5t63.5 25.5t62.5 -25.5t25.5 -62.5v-45q168 -19 317 -113q62 -34 62 -98q0 -47 -34 -80t-81 -33q-31 0 -61 18 q-113 68 -211 90v-393q234 -59 339 -158.5t105 -263.5q0 -167 -119 -273.5t-317 -125.5v-123q0 -37 -25.5 -62.5t-62.5 -25.5t-63.5 25.5t-26.5 62.5v127q-226 23 -420 160q-55 36 -55 98zM395 1055q0 -68 41.5 -111t155.5 -80v363q-95 -9 -146 -55.5t-51 -116.5zM754 207 q97 10 149.5 57t52.5 121q0 70 -43.5 114.5t-158.5 80.5v-373z" />
<glyph unicode="%" horiz-adv-x="1738" d="M98 1079v4q0 154 95.5 260.5t244.5 106.5t242.5 -105.5t93.5 -257.5v-4q0 -153 -95 -259.5t-245 -106.5q-148 0 -242 105.5t-94 256.5zM281 1083q0 -89 44.5 -149t112.5 -60q70 0 112 59.5t42 145.5v4q0 87 -45 148t-113 61q-70 0 -111.5 -59.5t-41.5 -145.5v-4zM315 70 q0 26 19 53l940 1284q21 37 69 37q34 0 58 -23t24 -57q0 -28 -18 -53l-940 -1284q-24 -37 -72 -37q-34 0 -57 23t-23 57zM965 346v4q0 154 95.5 260.5t244.5 106.5q147 0 241 -106t94 -257v-4q0 -153 -95.5 -259.5t-244.5 -106.5q-148 0 -241.5 105.5t-93.5 256.5zM1147 350 q0 -89 45 -149t113 -60q70 0 111.5 59.5t41.5 145.5v4q0 87 -45 148t-113 61q-70 0 -111.5 -59.5t-41.5 -145.5v-4z" />
<glyph unicode="&#x26;" horiz-adv-x="1425" d="M80 389v4q0 272 305 402q-119 151 -119 299v4q0 150 113 255t299 105q168 0 274.5 -99.5t106.5 -246.5v-4q0 -253 -314 -373l244 -248q57 81 119 205q9 22 34.5 41t59.5 19q44 0 76.5 -32t32.5 -75q0 -25 -15 -55q-71 -133 -155 -252l159 -160q39 -39 39 -86t-31.5 -79.5 t-78.5 -32.5q-50 0 -88 38l-150 152q-196 -190 -442 -190q-204 0 -336.5 113t-132.5 296zM334 397q0 -91 67.5 -150t171.5 -59q139 0 273 127l-320 326q-97 -43 -144.5 -105.5t-47.5 -134.5v-4zM502 1083q0 -54 23.5 -100t84.5 -113q114 41 170 94.5t56 129.5v4 q0 72 -45.5 117t-116.5 45q-76 0 -124 -49t-48 -124v-4z" />
<glyph unicode="'" horiz-adv-x="550" d="M127 887l37 438q3 50 35 82.5t82 32.5h79q30 0 50 -18.5t20 -49.5q0 -13 -8 -45l-150 -455q-23 -63 -75 -63q-31 0 -51 21.5t-19 56.5z" />
<glyph unicode="(" horiz-adv-x="903" d="M129 588q0 538 520 850q19 14 60 14q37 0 65.5 -31t28.5 -69q0 -54 -41 -84q-198 -138 -291.5 -301t-93.5 -379t93.5 -379t291.5 -301q41 -30 41 -84q0 -38 -28.5 -69t-65.5 -31q-41 0 -60 14q-520 312 -520 850z" />
<glyph unicode=")" horiz-adv-x="903" d="M98 -176q0 53 43 84q197 139 291 302t94 378t-94 378t-291 302q-43 31 -43 84q0 38 29 69t66 31q40 0 59 -14q522 -312 522 -850t-522 -850q-19 -14 -59 -14q-37 0 -66 31t-29 69z" />
<glyph unicode="*" horiz-adv-x="880" d="M125 969q0 43 47 63l180 78l-180 80q-47 19 -47 63q0 28 21 48t49 20q22 0 49 -21l153 -112l-20 182q-5 32 13.5 55t49.5 23t49.5 -22t14.5 -54l-21 -184l154 112q27 21 51 21q28 0 48 -20t20 -48q0 -44 -47 -63l-181 -80l181 -78q47 -19 47 -65q0 -28 -21 -48t-49 -20 q-18 0 -49 21l-154 112l21 -182q4 -32 -14.5 -55t-49.5 -23t-49 22t-14 54l20 184l-153 -112q-32 -21 -51 -21q-28 0 -48 21t-20 49z" />
<glyph unicode="+" horiz-adv-x="1298" d="M129 721q0 46 33.5 79.5t79.5 33.5h290v284q0 50 34 83.5t83 33.5q48 0 82.5 -34t34.5 -83v-284h291q46 0 79 -33.5t33 -79.5q0 -47 -33 -80t-79 -33h-291v-284q0 -49 -34.5 -83t-82.5 -34q-49 0 -83 33.5t-34 83.5v284h-290q-46 0 -79.5 33t-33.5 80z" />
<glyph unicode="," horiz-adv-x="550" d="M61 -240q0 21 13.5 36t34.5 20q145 48 139 184q-48 13 -82.5 50t-34.5 89v17q0 59 38.5 98t100.5 39q69 0 108.5 -48.5t39.5 -131.5v-23q0 -193 -101 -299q-41 -39 -95 -63.5t-97 -24.5q-31 0 -47.5 16t-16.5 41z" />
<glyph unicode="-" horiz-adv-x="835" d="M104 627q0 51 35.5 87t85.5 36h385q50 0 85.5 -36t35.5 -87q0 -49 -35.5 -85t-85.5 -36h-385q-49 0 -85 36t-36 85z" />
<glyph unicode="." horiz-adv-x="550" d="M131 131v21q0 60 41 100.5t104 40.5q61 0 102.5 -40.5t41.5 -100.5v-21q0 -60 -41.5 -100.5t-102.5 -40.5q-63 0 -104 40.5t-41 100.5z" />
<glyph unicode="/" horiz-adv-x="1067" d="M0 -178q0 25 12 49l838 1716q28 58 90 58q40 0 68 -28.5t28 -66.5q0 -19 -10 -49l-840 -1716q-28 -57 -88 -57q-40 0 -69 28t-29 66z" />
<glyph unicode="0" horiz-adv-x="1482" d="M117 713v4q0 205 77 373t221 268t328 100q183 0 326.5 -99t220 -266t76.5 -372v-4q0 -153 -45.5 -289t-126 -236t-199 -158.5t-256.5 -58.5q-184 0 -327 99t-219 266.5t-76 372.5zM377 717q0 -142 44.5 -258.5t128.5 -186t193 -69.5t192.5 69t127 184.5t43.5 256.5v4 q0 217 -102.5 365.5t-264.5 148.5q-108 0 -191 -68t-127 -183.5t-44 -258.5v-4z" />
<glyph unicode="1" horiz-adv-x="811" d="M61 1251q0 40 23 69t61 40l217 70q77 22 123 22h4q54 0 89.5 -36t35.5 -89v-1212q0 -53 -36 -89t-89 -36q-51 0 -87.5 36.5t-36.5 88.5v1081l-148 -45q-21 -6 -45 -6q-44 0 -77.5 31.5t-33.5 74.5z" />
<glyph unicode="2" horiz-adv-x="1255" d="M88 119q0 71 66 125l440 374q151 127 209.5 210t58.5 178q0 103 -65 163t-166 60q-83 0 -148.5 -38.5t-134.5 -121.5q-35 -39 -88 -39q-47 0 -81 34t-34 81q0 41 29 78q94 116 204 173.5t271 57.5q211 0 342 -118t131 -310v-4q0 -67 -15.5 -125t-41.5 -107t-75.5 -104 t-102.5 -103t-137 -116l-295 -246h581q46 0 78.5 -32t32.5 -78t-32.5 -78.5t-78.5 -32.5h-813q-60 0 -97.5 32t-37.5 87z" />
<glyph unicode="3" horiz-adv-x="1265" d="M111 252q0 50 35.5 85.5t84.5 35.5q47 0 84 -33q137 -137 326 -137q107 0 177.5 60t70.5 157v4q0 105 -88.5 163t-241.5 58h-51q-44 0 -76.5 32.5t-32.5 76.5q0 48 54 102l335 358h-520q-46 0 -78 32t-32 77q0 46 32 78.5t78 32.5h733q55 0 90 -30.5t35 -80.5 q0 -41 -17 -70.5t-54 -66.5l-338 -350q68 -8 127.5 -26.5t114.5 -51t94 -76.5t62.5 -107.5t23.5 -140.5v-4q0 -199 -139.5 -327t-362.5 -128q-291 0 -485 187q-41 32 -41 90z" />
<glyph unicode="4" horiz-adv-x="1396" d="M80 440q0 69 55 133l674 799q37 44 69.5 63t84.5 19q51 0 86.5 -35t35.5 -86v-805h111q44 0 74 -30.5t30 -73.5t-30 -72.5t-74 -29.5h-111v-213q0 -51 -34.5 -85t-85.5 -34t-86 34t-35 85v213h-641q-52 0 -87.5 33t-35.5 85zM373 528h471v568z" />
<glyph unicode="5" horiz-adv-x="1275" d="M121 229q0 49 35.5 85t85.5 36q43 0 73 -24q148 -121 312 -121q123 0 200.5 67.5t77.5 180.5v4q0 109 -82.5 173t-214.5 64q-61 0 -113.5 -12t-86 -24.5t-46.5 -12.5q-49 0 -118 49q-52 38 -49 111l30 516q3 49 36 81t79 32h649q46 0 79.5 -33.5t33.5 -79.5t-33.5 -78.5 t-79.5 -32.5h-538l-23 -336q112 41 227 41q107 0 197 -28t158 -82.5t106.5 -141.5t38.5 -198v-4q0 -217 -146.5 -351.5t-377.5 -134.5q-256 0 -459 156q-51 41 -51 98z" />
<glyph unicode="6" horiz-adv-x="1343" d="M117 674v4q0 132 24.5 249t75 214.5t122.5 168t172.5 109.5t219.5 39q207 0 359 -102q63 -40 63 -109q0 -49 -35.5 -83t-85.5 -34q-29 0 -63 19q-122 80 -246 80q-155 0 -245 -125.5t-99 -329.5q69 67 148.5 105.5t195.5 38.5q140 0 252 -52t180 -156t68 -243v-4 q0 -140 -70 -252t-192 -174t-271 -62q-247 0 -399 152q-87 87 -130.5 213.5t-43.5 333.5zM387 451q0 -110 82.5 -183t214.5 -73q131 0 209 72.5t78 185.5v4q0 109 -80.5 179.5t-212.5 70.5q-130 0 -210.5 -73t-80.5 -179v-4z" />
<glyph unicode="7" horiz-adv-x="1247" d="M129 1323q0 46 32.5 78.5t78.5 32.5h804q53 0 84 -30t31 -83t-35 -121l-594 -1126q-46 -84 -120 -84q-54 0 -91.5 30t-37.5 82q0 36 22 78l557 1032h-620q-46 0 -78.5 32.5t-32.5 78.5z" />
<glyph unicode="8" horiz-adv-x="1290" d="M98 391v4q0 240 258 348q-209 109 -209 320v4q0 165 142 276t356 111q215 0 356.5 -110.5t141.5 -276.5v-4q0 -211 -209 -320q126 -57 192 -139.5t66 -204.5v-4q0 -125 -71.5 -220.5t-195 -145t-280.5 -49.5q-156 0 -280 50.5t-195.5 144.5t-71.5 216zM346 406 q0 -91 81 -153.5t218 -62.5t219 62t82 154v4q0 97 -85.5 157t-215.5 60q-129 0 -214 -60t-85 -157v-4zM389 1040q0 -93 72.5 -153t183.5 -60t183.5 59.5t72.5 151.5v4q0 85 -71.5 143t-184.5 58t-184.5 -57.5t-71.5 -141.5v-4z" />
<glyph unicode="9" horiz-adv-x="1343" d="M121 958v5q0 213 149.5 354t384.5 141q132 0 226.5 -37t173.5 -114q83 -85 127.5 -215t44.5 -332v-4q0 -231 -72.5 -406.5t-212.5 -275t-330 -99.5q-212 0 -387 119q-57 37 -57 105q0 49 34.5 81.5t84.5 32.5q36 0 69 -20q125 -88 262 -88q156 0 248.5 124t98.5 326 q-126 -151 -336 -151q-229 0 -368.5 124t-139.5 330zM373 971q0 -113 80.5 -184.5t212.5 -71.5t211 75t79 183v4q0 114 -82.5 189t-216.5 75q-130 0 -207 -76t-77 -190v-4z" />
<glyph unicode=":" horiz-adv-x="571" d="M141 131v21q0 60 41.5 100.5t104.5 40.5q61 0 102 -40.5t41 -100.5v-21q0 -60 -41 -100.5t-102 -40.5q-63 0 -104.5 40.5t-41.5 100.5zM141 932v18q0 62 41.5 103t104.5 41q61 0 102 -41t41 -103v-18q0 -62 -41 -103t-102 -41q-63 0 -104.5 41t-41.5 103z" />
<glyph unicode=";" horiz-adv-x="571" d="M72 -240q0 21 13 36t34 20q145 48 139 184q-48 13 -82.5 50t-34.5 89v17q0 59 39 98t101 39q69 0 108 -48t39 -132v-23q0 -194 -100 -299q-41 -39 -95 -63.5t-98 -24.5q-31 0 -47 16t-16 41zM141 932v18q0 62 41.5 103t104.5 41q61 0 102 -41t41 -103v-18q0 -62 -41 -103 t-102 -41q-63 0 -104.5 41t-41.5 103z" />
<glyph unicode="&#x3c;" horiz-adv-x="1298" d="M125 713v16q0 90 98 137l740 363q32 16 63 16q40 2 70 -29t30 -75q0 -71 -69 -103l-674 -315l674 -317q69 -32 69 -105q0 -45 -31 -74.5t-77 -29.5q-23 0 -55 16l-740 362q-98 47 -98 138z" />
<glyph unicode="=" horiz-adv-x="1298" d="M145 465q0 46 34 80.5t81 34.5h778q47 0 81 -34.5t34 -80.5q0 -47 -34 -81t-81 -34h-778q-47 0 -81 34t-34 81zM145 977q0 47 34 81t81 34h778q47 0 81 -34t34 -81t-34 -81t-81 -34h-778q-47 0 -81 34t-34 81z" />
<glyph unicode="&#x3e;" horiz-adv-x="1298" d="M172 301q0 71 70 100l673 318l-673 317q-70 33 -70 105q0 45 31.5 74.5t77.5 29.5q23 0 55 -16l737 -363q101 -46 101 -137v-16q0 -92 -101 -138l-737 -362q-32 -16 -64 -16q-40 -2 -70 29t-30 75z" />
<glyph unicode="?" horiz-adv-x="1107" d="M68 1194q0 53 41 88q182 170 434 170q217 0 349 -112.5t132 -303.5v-4q0 -94 -32 -167.5t-90.5 -122t-130.5 -79t-161 -45.5l-8 -94q-6 -35 -30 -58.5t-58 -23.5h-12q-35 0 -59 23t-29 59l-21 176q-6 41 16.5 69.5t63.5 33.5q146 14 222.5 69.5t76.5 151.5v4 q0 88 -63 141.5t-172 53.5q-154 0 -279 -113q-36 -29 -76 -29q-47 0 -80.5 33.5t-33.5 79.5zM356 131v21q0 60 41.5 100.5t104.5 40.5t104 -40.5t41 -100.5v-21q0 -60 -41 -100.5t-104 -40.5t-104.5 40.5t-41.5 100.5z" />
<glyph unicode="@" horiz-adv-x="2007" d="M109 561q0 181 70 346t189.5 286t286 193t351.5 72q184 0 350.5 -67.5t284.5 -179t187.5 -259.5t69.5 -305q0 -125 -32 -224t-87.5 -160.5t-126 -93.5t-151.5 -32q-112 0 -188 40.5t-115 103.5q-140 -144 -317 -144q-158 0 -264.5 107t-106.5 280q0 106 39.5 202 t104 163.5t149 107t172.5 39.5q191 0 289 -151l6 37q18 102 106 102q46 0 77 -36t22 -89l-78 -438q-11 -68 -11 -88q0 -67 43 -106.5t117 -39.5q116 0 193.5 109.5t77.5 310.5q0 112 -39 220.5t-113 200.5t-172 162.5t-224.5 110t-262.5 39.5q-171 0 -323 -65t-260 -175 t-170.5 -261t-62.5 -318q0 -168 62.5 -318t171 -259.5t264.5 -173.5t334 -64q144 0 258.5 31t228.5 96q9 6 23 6q13 0 23 -11.5t10 -25.5q0 -22 -19 -30q-243 -144 -524 -144q-129 0 -249.5 32.5t-220.5 90.5t-183 140.5t-140 180.5t-88.5 213t-31.5 236zM721 537 q0 -104 59 -163t156 -59q113 0 198 96.5t85 227.5q0 97 -61 159t-154 62q-114 0 -198.5 -93.5t-84.5 -229.5z" />
<glyph unicode="A" horiz-adv-x="1583" d="M86 106q0 26 16 58l533 1188q47 102 151 102h13q102 0 149 -102l533 -1188q14 -25 14 -53q0 -51 -34 -86t-85 -35q-85 0 -123 88l-116 268h-697l-121 -276q-15 -38 -45.5 -59t-70.5 -21q-50 0 -83.5 33.5t-33.5 82.5zM537 569h503l-252 580z" />
<glyph unicode="B" horiz-adv-x="1478" d="M184 127v1180q0 54 36.5 90.5t90.5 36.5h516q248 0 375 -127q96 -96 96 -238v-4q0 -214 -204 -320q137 -46 210.5 -128t73.5 -220v-4q0 -189 -143 -291t-387 -102h-537q-54 0 -90.5 36.5t-36.5 90.5zM432 223h418q131 0 203.5 50.5t72.5 146.5v4q0 92 -74 142t-221 50 h-399v-393zM432 829h344q125 0 198 49.5t73 145.5v4q0 85 -66 133.5t-186 48.5h-363v-381z" />
<glyph unicode="C" horiz-adv-x="1511" d="M121 713v4q0 152 55 288t151 236t235 158.5t298 58.5q156 0 273 -42t219 -120q49 -36 49 -100q0 -52 -36 -87.5t-89 -35.5q-43 0 -76 25q-158 129 -342 129q-202 0 -337.5 -146.5t-135.5 -359.5v-4q0 -213 135 -360.5t338 -147.5q109 0 193 33.5t166 103.5q33 29 75 29 q47 0 83 -35t36 -82q0 -54 -41 -90q-108 -95 -231.5 -144t-288.5 -49q-154 0 -290 57.5t-232 156.5t-151.5 235.5t-55.5 288.5z" />
<glyph unicode="D" horiz-adv-x="1601" d="M184 127v1180q0 54 36.5 90.5t90.5 36.5h408q166 0 309 -55t242 -150t155 -226.5t56 -281.5v-4q0 -150 -56 -282t-155 -228t-242 -151.5t-309 -55.5h-408q-54 0 -90.5 36.5t-36.5 90.5zM436 229h283q224 0 361 135.5t137 348.5v4q0 213 -137.5 350t-360.5 137h-283v-975z " />
<glyph unicode="E" horiz-adv-x="1372" d="M184 127v1180q0 54 36.5 90.5t90.5 36.5h834q46 0 79 -33.5t33 -79.5q0 -47 -33 -80t-79 -33h-709v-372h617q46 0 79 -34t33 -81q0 -46 -33 -78.5t-79 -32.5h-617v-385h719q46 0 79.5 -33t33.5 -79q0 -47 -33.5 -80t-79.5 -33h-844q-54 0 -90.5 36.5t-36.5 90.5z" />
<glyph unicode="F" horiz-adv-x="1343" d="M184 115v1192q0 54 36.5 90.5t90.5 36.5h836q47 0 81 -34t34 -81t-34 -81t-81 -34h-711v-391h619q47 0 80.5 -34t33.5 -81t-33.5 -80.5t-80.5 -33.5h-619v-469q0 -53 -36 -89t-89 -36q-54 0 -90.5 36t-36.5 89z" />
<glyph unicode="G" horiz-adv-x="1605" d="M121 713v4q0 149 55.5 284.5t151.5 236.5t235 160.5t297 59.5q156 0 272 -36t218 -109q51 -37 51 -103q0 -51 -36.5 -88t-88.5 -37q-37 0 -78 29q-75 56 -156.5 84.5t-191.5 28.5q-129 0 -236.5 -69t-168 -185t-60.5 -252v-4q0 -147 60 -263t171.5 -182.5t255.5 -66.5 q203 0 347 108v269h-283q-46 0 -79.5 31.5t-33.5 76.5q0 46 33.5 78.5t79.5 32.5h399q54 0 90.5 -36.5t36.5 -90.5v-383q0 -105 -88 -160q-234 -156 -510 -156q-220 0 -390.5 97.5t-261.5 265t-91 375.5z" />
<glyph unicode="H" horiz-adv-x="1556" d="M184 115v1204q0 53 36.5 89t90.5 36q53 0 89 -36t36 -89v-481h684v481q0 53 36 89t89 36q54 0 90.5 -36t36.5 -89v-1204q0 -53 -36.5 -89t-90.5 -36q-53 0 -89 36t-36 89v489h-684v-489q0 -53 -36 -89t-89 -36q-54 0 -90.5 36t-36.5 89z" />
<glyph unicode="I" horiz-adv-x="649" d="M199 115v1204q0 53 36.5 89t90.5 36q52 0 88.5 -36t36.5 -89v-1204q0 -53 -36.5 -89t-88.5 -36q-54 0 -90.5 36t-36.5 89z" />
<glyph unicode="J" horiz-adv-x="1146" d="M68 231q0 51 34.5 86t85.5 35q42 0 78 -28q55 -57 110 -84t124 -27q108 0 169.5 71t61.5 212v823q0 52 37 88.5t90 36.5t90 -36.5t37 -88.5v-832q0 -246 -135 -381q-126 -126 -348 -126q-234 0 -391 157q-43 37 -43 94z" />
<glyph unicode="K" horiz-adv-x="1460" d="M184 115v1204q0 53 36.5 89t90.5 36q53 0 89 -36t36 -89v-606l680 684q44 47 105 47q51 0 83.5 -35t32.5 -82q0 -52 -45 -94l-446 -430l483 -600q35 -47 35 -90q0 -52 -36.5 -87.5t-90.5 -35.5q-61 0 -107 59l-460 588l-234 -225v-297q0 -53 -36 -89t-89 -36 q-54 0 -90.5 36t-36.5 89z" />
<glyph unicode="L" horiz-adv-x="1267" d="M184 127v1192q0 53 36.5 89t90.5 36q53 0 89 -36t36 -89v-1090h649q47 0 81 -33.5t34 -80.5t-34 -81t-81 -34h-774q-54 0 -90.5 36.5t-36.5 90.5z" />
<glyph unicode="M" horiz-adv-x="1777" d="M184 113v1202q0 53 36.5 90t90.5 37h27q73 0 117 -68l434 -680l436 682q41 66 115 66h26q54 0 90.5 -37t36.5 -90v-1200q0 -53 -36.5 -89t-90.5 -36q-51 0 -88 37t-37 88v860l-350 -526q-43 -66 -106 -66q-62 0 -105 66l-348 522v-858q0 -52 -36 -87.5t-89 -35.5t-88 35 t-35 88z" />
<glyph unicode="N" horiz-adv-x="1617" d="M184 113v1202q0 53 36.5 90t90.5 37h27q42 0 71.5 -18.5t59.5 -55.5l717 -928v881q0 51 36 87t87 36q52 0 88.5 -36t36.5 -87v-1204q0 -53 -35.5 -89t-87.5 -36h-11q-72 0 -131 76l-737 954v-909q0 -51 -36 -87t-87 -36q-52 0 -88.5 36t-36.5 87z" />
<glyph unicode="O" horiz-adv-x="1740" d="M121 713v4q0 150 56 285.5t154 236t239 160t302 59.5t301.5 -58.5t238 -158.5t153 -235t55.5 -285v-4q0 -150 -56 -286t-154 -236.5t-239.5 -160t-302.5 -59.5q-215 0 -387 100.5t-266 268.5t-94 369zM385 717q0 -139 61.5 -255t174 -184.5t251.5 -68.5t250.5 67.5 t172.5 182.5t61 254v4q0 139 -62 255.5t-174.5 185.5t-251.5 69t-250.5 -68t-172 -183.5t-60.5 -254.5v-4z" />
<glyph unicode="P" horiz-adv-x="1368" d="M184 115v1192q0 54 36.5 90.5t90.5 36.5h439q250 0 397 -131t147 -349v-4q0 -156 -78.5 -268.5t-206 -166.5t-288.5 -54h-285v-346q0 -53 -36 -89t-89 -36q-54 0 -90.5 36t-36.5 89zM436 688h293q141 0 225 71t84 185v4q0 124 -82.5 190t-226.5 66h-293v-516z" />
<glyph unicode="Q" horiz-adv-x="1740" d="M121 713v4q0 150 56 285.5t154 236t239 160t302 59.5t301.5 -58.5t238 -158.5t153 -235t55.5 -285v-4q0 -244 -145 -441l92 -75q47 -41 47 -99q0 -50 -35 -85t-84 -35q-52 0 -88 36l-102 93q-191 -136 -437 -136q-215 0 -387 100.5t-266 268.5t-94 369zM385 717 q0 -139 61.5 -255t174 -184.5t251.5 -68.5q137 0 248 65l-178 152q-47 41 -47 98q0 50 35 85.5t84 35.5q45 0 88 -37l184 -168q70 121 70 273v4q0 139 -62 255.5t-174.5 185.5t-251.5 69t-250.5 -68t-172 -183.5t-60.5 -254.5v-4z" />
<glyph unicode="R" horiz-adv-x="1480" d="M184 115v1192q0 54 36.5 90.5t90.5 36.5h512q267 0 414 -144q119 -122 119 -309v-4q0 -166 -87.5 -274t-238.5 -154l275 -346q41 -51 41 -97q0 -51 -36.5 -83.5t-84.5 -32.5q-75 0 -123 65l-348 445h-318v-385q0 -53 -36 -89t-89 -36q-54 0 -90.5 36t-36.5 89zM436 723 h369q135 0 215 65.5t80 174.5v4q0 114 -78 175.5t-219 61.5h-367v-481z" />
<glyph unicode="S" horiz-adv-x="1310" d="M98 256q0 49 34.5 83t84.5 34q43 0 74 -23q186 -147 401 -147q116 0 185 50t69 130v4q0 54 -25 89.5t-95.5 67.5t-202.5 62q-98 24 -167.5 48t-131.5 58.5t-99.5 78t-58.5 104.5t-21 139v4q0 184 137.5 300t352.5 116q255 0 455 -133q24 -13 39.5 -39t15.5 -61 q0 -49 -34.5 -83t-84.5 -34q-35 0 -65 18q-168 109 -330 109q-107 0 -170.5 -48.5t-63.5 -121.5v-4q0 -58 28.5 -94.5t101 -67.5t212.5 -64q238 -58 348.5 -152.5t110.5 -266.5v-4q0 -198 -141.5 -313t-370.5 -115q-297 0 -539 180q-49 34 -49 96z" />
<glyph unicode="T" horiz-adv-x="1327" d="M72 1317q0 48 33.5 82.5t82.5 34.5h953q47 0 80.5 -34.5t33.5 -82.5t-33.5 -82.5t-80.5 -34.5h-350v-1085q0 -52 -37 -88.5t-90 -36.5t-90 36.5t-37 88.5v1085h-349q-49 0 -82.5 34.5t-33.5 82.5z" />
<glyph unicode="U" horiz-adv-x="1550" d="M162 608v711q0 53 36.5 89t90.5 36q53 0 89 -36t36 -89v-701q0 -197 95.5 -302t266.5 -105q170 0 265.5 101t95.5 296v711q0 53 36.5 89t90.5 36q52 0 88.5 -36t36.5 -89v-698q0 -314 -164.5 -479t-452.5 -165q-285 0 -447.5 162t-162.5 469z" />
<glyph unicode="V" horiz-adv-x="1501" d="M84 1321q0 51 36.5 87t90.5 36q95 0 129 -90l414 -1035l420 1043q13 34 45.5 58t74.5 24q53 0 89 -35t36 -86q0 -25 -12 -53l-504 -1188q-44 -102 -145 -102h-15q-99 0 -143 102l-502 1180q-14 32 -14 59z" />
<glyph unicode="W" horiz-adv-x="2250" d="M86 1321q0 52 38 87.5t91 35.5q45 0 79 -25.5t46 -66.5l330 -985l323 981q16 46 48.5 73t78.5 27h19q46 0 79.5 -27.5t47.5 -72.5l323 -981l330 987q14 40 46.5 65t76.5 25q51 0 88 -35t37 -86q0 -21 -13 -51l-423 -1188q-18 -48 -52.5 -76t-79.5 -28h-24q-93 0 -129 104 l-320 936l-319 -936q-17 -50 -51 -77t-80 -27h-25q-92 0 -131 104l-424 1188q-10 23 -10 49z" />
<glyph unicode="X" horiz-adv-x="1462" d="M111 106q0 46 36 95l426 528l-401 498q-39 53 -39 94q0 53 35.5 88t89.5 35q38 0 64.5 -15t50.5 -47l362 -477l359 469q51 70 123 70q44 0 79 -32.5t35 -82.5q0 -48 -39 -96l-401 -500l422 -526q39 -53 39 -94q0 -53 -35.5 -88t-89.5 -35q-69 0 -115 61l-385 502 l-379 -494q-28 -36 -56 -52.5t-67 -16.5q-45 0 -79.5 32t-34.5 84z" />
<glyph unicode="Y" horiz-adv-x="1425" d="M66 1323q0 51 36.5 86t90.5 35q70 0 122 -76l400 -575l405 577q52 76 121 76q54 0 88.5 -35.5t34.5 -87.5q0 -41 -35 -90l-489 -670v-448q0 -53 -36.5 -89t-90.5 -36q-53 0 -89 36t-36 89v442l-494 678q-28 44 -28 88z" />
<glyph unicode="Z" horiz-adv-x="1437" d="M125 111v6q0 63 47 116l807 977h-719q-44 0 -77 33t-33 78q0 46 33 79.5t77 33.5h942q46 0 79.5 -33.5t33.5 -77.5v-6q0 -60 -45 -117l-809 -977h745q46 0 79.5 -33t33.5 -79t-33.5 -78.5t-79.5 -32.5h-968q-44 0 -78.5 33.5t-34.5 77.5z" />
<glyph unicode="[" horiz-adv-x="931" d="M180 -143v1454q0 51 35 87t86 36h422q40 0 69 -29.5t29 -69.5t-29 -68t-69 -28h-305v-1311h305q40 0 69 -28t29 -68t-29 -69t-69 -29h-422q-51 0 -86 36t-35 87z" />
<glyph unicode="\" horiz-adv-x="1067" d="M31 1550q0 38 28.5 66.5t67.5 28.5q62 0 90 -58l838 -1716q12 -24 12 -49q0 -38 -29 -66t-69 -28q-60 0 -88 57l-840 1716q-10 30 -10 49z" />
<glyph unicode="]" horiz-adv-x="931" d="M111 -168q0 40 28 68t68 28h307v1311h-307q-40 0 -68 28t-28 68t28.5 69.5t67.5 29.5h422q51 0 87 -36t36 -87v-1454q0 -51 -36 -87t-87 -36h-422q-40 0 -68 29t-28 69z" />
<glyph unicode="^" horiz-adv-x="1024" d="M158 1040q0 28 24 62l195 266q52 74 125 74h18q41 0 70 -18t57 -56l195 -266q22 -36 22 -62q0 -19 -16 -30t-41 -11q-46 0 -77.5 19t-72.5 72l-147 190l-148 -190q-41 -53 -71.5 -72t-75.5 -19q-25 0 -41 11t-16 30z" />
<glyph unicode="_" horiz-adv-x="1228" d="M-100 -231q0 40 28 68t68 28h1237q40 0 68 -28t28 -68t-28 -68.5t-68 -28.5h-1237q-40 0 -68 28.5t-28 68.5z" />
<glyph unicode="`" horiz-adv-x="1024" d="M283 1456q0 29 48.5 54.5t98.5 25.5q61 0 98 -59l117 -181q19 -28 19 -45q0 -20 -18 -31.5t-46 -11.5q-45 0 -77 12t-66 44l-140 131q-34 31 -34 61z" />
<glyph unicode="a" d="M84 311v4q0 170 121 259.5t325 89.5q148 0 291 -46v27q0 115 -68.5 175.5t-199.5 60.5q-132 0 -240 -43q-24 -7 -39 -7q-43 0 -73.5 30t-30.5 73q0 33 19.5 60t48.5 38q167 64 348 64q240 0 358 -121q117 -114 117 -334v-532q0 -51 -35 -85t-86 -34q-53 0 -87 31t-34 73 v41q-133 -158 -352 -158q-104 0 -189.5 37.5t-139.5 114.5t-54 182zM326 322q0 -76 59.5 -120t151.5 -44q124 0 206 64.5t82 166.5v74q-108 43 -245 43q-120 0 -187 -47.5t-67 -132.5v-4z" />
<glyph unicode="b" horiz-adv-x="1374" d="M156 113v1269q0 52 35 87.5t88 35.5t88.5 -35.5t35.5 -87.5v-481q144 203 369 203q96 0 185.5 -38t160.5 -107t113.5 -177t42.5 -239v-4q0 -130 -42.5 -238t-113 -178t-160 -108t-186.5 -38q-224 0 -369 191v-55q0 -51 -36 -87t-88 -36q-51 0 -87 36t-36 87zM397 539 q0 -151 93 -248.5t223 -97.5q131 0 220 95t89 251v4q0 153 -90 249.5t-219 96.5q-130 0 -223 -97.5t-93 -248.5v-4z" />
<glyph unicode="c" horiz-adv-x="1169" d="M96 535v4q0 153 72 282t202 206t289 77q224 0 379 -135q39 -34 39 -86q0 -47 -33.5 -80t-80.5 -33q-41 0 -74 25q-109 92 -232 92q-133 0 -223 -100.5t-90 -243.5v-4q0 -147 91.5 -246.5t232.5 -99.5q126 0 241 96q30 26 68 26q44 0 75 -32t31 -76q0 -51 -34 -78 q-161 -154 -394 -154q-158 0 -286.5 75.5t-200.5 204t-72 280.5z" />
<glyph unicode="d" horiz-adv-x="1374" d="M100 539v4q0 130 42 238t112.5 177.5t160 107.5t187.5 38q223 0 369 -191v469q0 52 36 87.5t87 35.5q53 0 89 -35.5t36 -87.5v-1269q0 -52 -36 -87.5t-87 -35.5q-53 0 -89 35.5t-36 87.5v67q-144 -203 -369 -203q-96 0 -185.5 38t-160.5 108t-113.5 178t-42.5 238z M350 539q0 -153 91 -249.5t221 -96.5q128 0 220.5 97.5t92.5 248.5v4q0 152 -92 249t-221 97q-132 0 -222 -94.5t-90 -251.5v-4z" />
<glyph unicode="e" horiz-adv-x="1236" d="M96 537v4q0 154 67 282.5t189 204.5t273 76q100 0 185.5 -31.5t144.5 -84t101.5 -121.5t62.5 -144.5t20 -151.5q0 -51 -34.5 -84.5t-82.5 -33.5h-678q20 -130 104.5 -202.5t206.5 -72.5q141 0 256 94q30 23 64 23q41 0 69.5 -28.5t28.5 -71.5t-33 -76 q-160 -144 -389 -144q-156 0 -282 70t-199.5 199t-73.5 293zM342 616h555q-13 126 -84.5 205.5t-189.5 79.5q-112 0 -187.5 -78.5t-93.5 -206.5z" />
<glyph unicode="f" horiz-adv-x="770" d="M63 971q0 43 31 73.5t74 30.5h43v80q0 178 88 266q86 86 244 86q67 0 125 -10q35 -5 60.5 -33.5t25.5 -68.5q0 -43 -31 -73q-30 -30 -71 -30h-3q-28 4 -51 4q-143 0 -143 -163v-60h192q44 0 74.5 -29.5t30.5 -72.5t-31 -73t-74 -30h-188v-755q0 -51 -36.5 -87t-88.5 -36 q-51 0 -87 36t-36 87v755h-43q-43 0 -74 30t-31 73z" />
<glyph unicode="g" horiz-adv-x="1374" d="M100 592v4q0 116 41.5 213.5t110.5 161t157 98.5t183 35q126 0 216.5 -49.5t162.5 -134.5v51q0 51 36 87t87 36q52 0 88.5 -36t36.5 -89v-748q0 -269 -138 -407q-146 -146 -444 -146q-218 0 -418 96q-69 26 -69 99q0 41 30.5 71.5t73.5 30.5q25 0 45 -10q153 -86 332 -86 q166 0 254 85t88 247v84q-74 -96 -164.5 -147.5t-216.5 -51.5q-96 0 -184 35t-157 98.5t-110 160.5t-41 212zM350 594q0 -130 88.5 -213.5t218.5 -83.5q132 0 225 84t93 213v4q0 129 -93 213t-225 84q-131 0 -219 -83t-88 -214v-4z" />
<glyph unicode="h" horiz-adv-x="1269" d="M156 113v1269q0 51 35.5 87t87.5 36t88 -36t36 -87v-467q132 189 338 189q181 0 283 -112t102 -302v-577q0 -53 -35 -88t-87 -35q-53 0 -89 35.5t-36 87.5v501q0 126 -61 195.5t-171 69.5q-109 0 -176.5 -72.5t-67.5 -196.5v-497q0 -52 -35.5 -87.5t-88.5 -35.5 q-51 0 -87 35.5t-36 87.5z" />
<glyph unicode="i" horiz-adv-x="585" d="M152 1360v12q0 55 40 88t101 33t101 -33t40 -88v-12q0 -55 -40 -89t-101 -34t-101 34t-40 89zM170 113v856q0 53 35.5 89t87.5 36q53 0 89 -36t36 -89v-856q0 -52 -36 -87.5t-89 -35.5q-51 0 -87 35.5t-36 87.5z" />
<glyph unicode="j" horiz-adv-x="585" d="M-35 -231q0 45 28.5 73.5t69.5 28.5q2 0 8 -1t7 -1q92 0 92 117v983q0 53 35.5 89t87.5 36q53 0 89 -36t36 -89v-983q0 -160 -79 -240t-220 -80h-19q-61 2 -98 28t-37 75zM152 1360v12q0 55 40 88t101 33t101 -33t40 -88v-12q0 -55 -40 -89t-101 -34t-101 34t-40 89z" />
<glyph unicode="k" horiz-adv-x="1187" d="M156 113v1269q0 51 35.5 87t87.5 36t88 -36t36 -87v-798l465 456q54 54 107 54q48 0 78 -33.5t30 -79.5q0 -52 -55 -104l-287 -265l328 -428q33 -44 33 -82q0 -50 -34 -81t-83 -31q-36 0 -60 12.5t-48 42.5l-310 412l-164 -156v-188q0 -52 -35.5 -87.5t-88.5 -35.5 q-51 0 -87 35.5t-36 87.5z" />
<glyph unicode="l" horiz-adv-x="585" d="M170 113v1269q0 51 35.5 87t87.5 36t88.5 -36t36.5 -87v-1269q0 -52 -36 -87.5t-89 -35.5q-51 0 -87 35.5t-36 87.5z" />
<glyph unicode="m" horiz-adv-x="1945" d="M156 113v856q0 53 35.5 89t87.5 36t88 -36t36 -89v-51q62 86 139.5 136t190.5 50q114 0 197 -51t127 -140q143 191 364 191q178 0 278.5 -108.5t100.5 -305.5v-577q0 -53 -35 -88t-88 -35t-89 35.5t-36 87.5v501q0 128 -57 196.5t-162 68.5q-104 0 -167.5 -70.5 t-63.5 -198.5v-497q0 -52 -36 -87.5t-87 -35.5q-53 0 -89 35.5t-36 87.5v503q0 125 -58 194t-161 69q-104 0 -168 -73t-64 -196v-497q0 -52 -35.5 -87.5t-88.5 -35.5q-51 0 -87 35.5t-36 87.5z" />
<glyph unicode="n" horiz-adv-x="1269" d="M156 113v856q0 53 35.5 89t87.5 36t88 -36t36 -89v-54q132 189 338 189q181 0 283 -112t102 -302v-577q0 -53 -35 -88t-87 -35q-53 0 -89 35.5t-36 87.5v501q0 126 -61 195.5t-171 69.5q-109 0 -176.5 -72.5t-67.5 -196.5v-497q0 -52 -35.5 -87.5t-88.5 -35.5 q-51 0 -87 35.5t-36 87.5z" />
<glyph unicode="o" horiz-adv-x="1345" d="M96 535v4q0 153 74.5 282.5t208 206t295.5 76.5q122 0 229.5 -44.5t183 -120t119 -178.5t43.5 -218v-4q0 -114 -44 -217.5t-120 -180t-184 -121.5t-231 -45q-121 0 -228.5 44.5t-183 120t-119 178.5t-43.5 217zM344 539q0 -144 94 -245t236 -101q147 0 237 99t90 243v4 q0 145 -93.5 246.5t-237.5 101.5q-146 0 -236 -99.5t-90 -244.5v-4z" />
<glyph unicode="p" horiz-adv-x="1374" d="M156 -215v1184q0 53 35.5 89t87.5 36t88 -36t36 -89v-68q144 203 369 203q96 0 185.5 -38t160.5 -107t113.5 -177t42.5 -239v-4q0 -130 -42.5 -238t-113 -178t-160 -108t-186.5 -38q-224 0 -369 191v-383q0 -52 -35.5 -87.5t-88.5 -35.5q-51 0 -87 35.5t-36 87.5z M397 539q0 -151 93 -248.5t223 -97.5q131 0 220 95t89 251v4q0 153 -90 249.5t-219 96.5q-130 0 -223 -97.5t-93 -248.5v-4z" />
<glyph unicode="q" horiz-adv-x="1374" d="M100 539v4q0 130 42 238t112.5 177.5t160 107.5t187.5 38q223 0 369 -191v58q0 51 36 87t87 36q52 0 88.5 -36t36.5 -89v-1184q0 -52 -36 -87.5t-87 -35.5q-53 0 -89 35.5t-36 87.5v395q-144 -203 -369 -203q-96 0 -185.5 38t-160.5 108t-113.5 178t-42.5 238zM350 539 q0 -153 91 -249.5t221 -96.5q128 0 220.5 97.5t92.5 248.5v4q0 152 -92 249t-221 97q-132 0 -222 -94.5t-90 -251.5v-4z" />
<glyph unicode="r" horiz-adv-x="845" d="M156 113v856q0 53 35.5 89t87.5 36t88 -36t36 -89v-111q44 104 118.5 171t154.5 67q57 0 90 -34t33 -89q0 -48 -28 -79.5t-71 -39.5q-138 -24 -217.5 -130.5t-79.5 -291.5v-319q0 -51 -36 -87t-88 -36q-51 0 -87 35.5t-36 87.5z" />
<glyph unicode="s" horiz-adv-x="1026" d="M68 195q0 42 29 71t71 29q28 0 53 -14q156 -105 311 -105q79 0 123.5 31.5t44.5 85.5v4q0 28 -16.5 50t-49.5 39t-66.5 29t-84.5 27q-16 5 -24 7q-57 16 -97.5 30.5t-89.5 41t-79 57.5t-51 79.5t-21 108.5v4q0 150 109.5 240t275.5 90q174 0 340 -88q59 -30 59 -94 q0 -43 -29.5 -72t-72.5 -29q-25 0 -49 12q-145 74 -254 74q-71 0 -111.5 -29.5t-40.5 -76.5v-4q0 -59 97 -102q34 -16 147 -52q56 -17 96.5 -32.5t89 -43t78.5 -58.5t51 -78t21 -103v-5q0 -164 -112.5 -251.5t-289.5 -87.5q-223 0 -411 129q-47 24 -47 86z" />
<glyph unicode="t" horiz-adv-x="841" d="M59 975q0 44 31.5 75t75.5 31h41v185q0 51 36.5 87t88.5 36q51 0 87 -36t36 -87v-185h194q45 0 77 -31t32 -75t-32.5 -75.5t-76.5 -31.5h-194v-530q0 -135 133 -135q17 0 38.5 3t22.5 3q42 0 73.5 -30.5t31.5 -72.5q0 -32 -19 -58.5t-47 -37.5q-82 -28 -170 -28 q-311 0 -311 317v569h-41q-44 0 -75.5 31.5t-31.5 75.5z" />
<glyph unicode="u" horiz-adv-x="1269" d="M143 393v576q0 52 36 88.5t87 36.5q52 0 88.5 -36t36.5 -89v-502q0 -126 60.5 -194t171.5 -68q109 0 176 71t67 195v498q0 53 36 89t89 36q51 0 88 -36.5t37 -88.5v-856q0 -51 -36.5 -87t-88.5 -36t-88.5 35.5t-36.5 87.5v55q-131 -191 -338 -191q-181 0 -283 112.5 t-102 303.5z" />
<glyph unicode="v" horiz-adv-x="1200" d="M78 975q0 47 36.5 83t86.5 36q88 0 123 -90l278 -717l283 721q36 86 116 86q51 0 86 -34t35 -85q0 -32 -14 -60l-360 -827q-50 -108 -142 -108h-12q-94 0 -141 108l-361 825q-14 42 -14 62z" />
<glyph unicode="w" horiz-adv-x="1746" d="M78 979q0 46 34 80.5t87 34.5q44 0 75 -27t45 -72l209 -655l211 655q14 44 47.5 71.5t79.5 27.5h15q46 0 79.5 -27.5t47.5 -71.5l213 -655l211 657q13 43 43 70t77 27q50 0 83.5 -34t33.5 -81q0 -25 -10 -55l-295 -832q-39 -110 -137 -110h-8q-47 0 -83 27t-53 79 l-211 643l-213 -643q-17 -52 -52 -79t-81 -27h-8q-101 0 -137 110l-291 823q-12 32 -12 64z" />
<glyph unicode="x" horiz-adv-x="1173" d="M98 94q0 48 35 86l307 369l-284 338q-41 50 -41 94q0 51 33.5 83t80.5 32q66 0 115 -62l244 -319l248 317q50 64 106 64q49 0 83 -31.5t34 -77.5q0 -40 -35 -84l-293 -350l303 -358q41 -50 41 -95q0 -51 -33.5 -82.5t-80.5 -31.5q-67 0 -115 63l-262 338l-262 -338 q-52 -63 -109 -63q-48 0 -81.5 31.5t-33.5 76.5z" />
<glyph unicode="y" d="M80 973q0 52 35 86.5t88 34.5q83 0 121 -95l290 -718l271 718q37 95 119 95q50 0 84 -34t34 -83q0 -29 -10 -59l-395 -949q-69 -166 -151.5 -234.5t-213.5 -68.5q-93 0 -172 31q-32 11 -55 36t-23 66q0 45 30 74t71 29q21 0 45 -8q54 -15 86 -15q55 0 88.5 25.5 t64.5 89.5l9 22l-402 897q-14 31 -14 60z" />
<glyph unicode="z" horiz-adv-x="1146" d="M100 100v4q0 34 13 60.5t43 58.5l575 656h-510q-43 0 -72.5 29.5t-29.5 70.5q0 43 29.5 72.5t72.5 29.5h713q51 0 85 -27.5t34 -70.5v-6q0 -34 -12.5 -60.5t-41.5 -58.5l-577 -655h532q43 0 73 -30t30 -73q0 -41 -30 -70.5t-73 -29.5h-733q-52 0 -86.5 28.5t-34.5 71.5z " />
<glyph unicode="{" horiz-adv-x="997" d="M94 588q0 42 28 68.5t77 29.5q104 4 148 56t44 167q0 18 -2 75.5t-2 72.5q0 78 18.5 136.5t63 109t123.5 87t196 62.5q47 10 80 -14.5t33 -69.5q0 -34 -17.5 -55.5t-39.5 -28.5q-74 -23 -119.5 -47t-69.5 -56.5t-31.5 -68t-7.5 -92.5q0 -20 2.5 -75t2.5 -77 q0 -115 -53.5 -180.5t-159.5 -99.5q108 -35 160.5 -100t52.5 -181q0 -22 -2.5 -76.5t-2.5 -74.5q0 -57 7.5 -92.5t31.5 -68.5t69.5 -57t119.5 -47q22 -7 39.5 -28.5t17.5 -55.5q0 -44 -33 -68.5t-80 -14.5q-117 26 -196 62.5t-123.5 87.5t-63 109.5t-18.5 137.5q0 15 2 72 t2 75q0 114 -44.5 166t-147.5 55q-49 3 -77 30t-28 69z" />
<glyph unicode="|" horiz-adv-x="677" d="M240 -174v1720q0 41 29 70t69 29q41 0 70.5 -29t29.5 -70v-1720q0 -41 -29.5 -69.5t-70.5 -28.5q-40 0 -69 28.5t-29 69.5z" />
<glyph unicode="}" horiz-adv-x="997" d="M96 -193q0 34 18 55.5t42 28.5q74 23 118.5 47t68 57t31 68.5t7.5 92.5q0 20 -2 74.5t-2 76.5q0 115 53.5 181t159.5 100q-108 35 -160.5 100t-52.5 180q0 22 2 77t2 75q0 57 -7.5 92t-31 68t-68 57t-118.5 47q-24 7 -42 28.5t-18 55.5q0 45 33 69.5t80 14.5 q117 -26 196 -62.5t123.5 -87t63 -109t18.5 -136.5q0 -15 -2 -72.5t-2 -75.5q0 -114 45.5 -166.5t149.5 -56.5q47 -3 74.5 -29.5t27.5 -68.5t-27.5 -69t-74.5 -30q-104 -3 -149.5 -55.5t-45.5 -165.5q0 -18 2 -75t2 -72q0 -79 -18.5 -137.5t-63 -109.5t-123.5 -87.5 t-196 -62.5q-47 -10 -80 14.5t-33 68.5z" />
<glyph unicode="~" horiz-adv-x="1013" d="M133 535q0 29 8 45q34 95 81.5 140.5t127.5 45.5q62 0 162 -40t131 -40q35 0 55.5 14.5t40.5 49.5q22 43 66 43q30 0 53 -21.5t23 -48.5q0 -26 -9 -47q-34 -95 -81.5 -141t-126.5 -46q-62 0 -162 41t-131 41q-35 0 -56 -15t-41 -50q-21 -41 -65 -41q-31 0 -53.5 21 t-22.5 49z" />
<glyph unicode="&#xa1;" horiz-adv-x="618" d="M164 82l72 836q3 34 22.5 53.5t50.5 19.5t52 -20t24 -53l72 -836q3 -37 -18 -62.5t-56 -25.5h-147q-35 0 -55 25.5t-17 62.5zM164 1284v19q0 60 41.5 100.5t103.5 40.5q63 0 104.5 -40.5t41.5 -100.5v-19q0 -62 -41.5 -102.5t-104.5 -40.5q-62 0 -103.5 41t-41.5 102z " />
<glyph unicode="&#xa2;" horiz-adv-x="1189" d="M106 723v4q0 115 42.5 218.5t116.5 179.5t179 120.5t224 44.5h16l18 94q6 32 29.5 52t59.5 20q41 0 67 -31.5t16 -74.5l-16 -86q102 -34 195 -113q37 -33 37 -84q0 -46 -32.5 -78.5t-78.5 -32.5q-41 0 -70 25q-57 46 -102 66l-131 -668q132 3 242 98q33 25 69 25 q40 0 70 -31t30 -74q0 -46 -32 -75q-165 -158 -398 -158h-14l-22 -115q-6 -32 -29 -52t-57 -20q-42 0 -68.5 31.5t-17.5 75.5l22 113q-163 58 -264 201.5t-101 324.5zM348 727q0 -104 46 -187t128 -126l129 661q-130 -4 -216.5 -104t-86.5 -240v-4z" />
<glyph unicode="&#xa3;" horiz-adv-x="1318" d="M119 88q0 69 67 90l105 31v360h-66q-44 0 -75 31.5t-31 75.5q0 43 31 74.5t75 31.5h66v189q0 229 127 356q124 127 344 127q243 0 399 -166q39 -39 39 -90q0 -52 -36 -87.5t-89 -35.5q-55 0 -90 39q-50 54 -101 80.5t-118 26.5q-91 0 -152 -58q-67 -70 -67 -198v-183h414 q43 0 74.5 -31.5t31.5 -74.5q0 -44 -31.5 -75.5t-74.5 -31.5h-414v-350h565q46 0 78.5 -32t32.5 -78t-32.5 -77.5t-78.5 -31.5h-897q-42 0 -69 25.5t-27 62.5z" />
<glyph unicode="&#xa5;" horiz-adv-x="1404" d="M102 1325q0 48 36 83.5t89 35.5q72 0 119 -70l359 -534l362 532q49 72 115 72q51 0 86 -32t35 -85q0 -45 -31 -88l-381 -516h248q37 0 63.5 -27t26.5 -65q0 -37 -26.5 -63.5t-63.5 -26.5h-316v-150h316q37 0 63.5 -27t26.5 -65q0 -37 -26.5 -63.5t-63.5 -26.5h-316v-98 q0 -51 -35 -86t-86 -35t-85.5 35t-34.5 86v98h-316q-37 0 -63.5 26.5t-26.5 63.5q0 38 26.5 65t63.5 27h316v150h-316q-37 0 -63.5 26.5t-26.5 63.5q0 38 26.5 65t63.5 27h244l-377 516q-31 45 -31 86z" />
<glyph unicode="&#xa7;" horiz-adv-x="1294" d="M119 715v4q0 179 219 237q-113 72 -113 195v4q0 137 107.5 218t294.5 81q249 0 426 -147q37 -33 37 -78q0 -43 -30 -72t-73 -29q-36 0 -63 23q-137 115 -295 115q-80 0 -123 -27.5t-43 -73.5v-4q0 -44 55.5 -75t214.5 -68q241 -55 342 -121.5t101 -177.5v-4 q0 -93 -59.5 -152t-160.5 -86q54 -32 84.5 -83.5t30.5 -110.5v-4q0 -136 -108.5 -217.5t-294.5 -81.5q-249 0 -426 147q-37 33 -37 78q0 43 29.5 72.5t72.5 29.5q36 0 64 -24q137 -115 295 -115q79 0 122 28t43 72v4q0 46 -58 78t-212 66q-240 54 -341 122t-101 177z M342 750q0 -45 55.5 -78.5t186.5 -65.5q140 -37 211 -37q68 0 112.5 31.5t44.5 79.5v4q0 45 -55 78t-184 65q-143 37 -213 37q-69 0 -113.5 -31.5t-44.5 -78.5v-4z" />
<glyph unicode="&#xa8;" horiz-adv-x="1024" d="M174 1333v15q0 55 39 91t96 36q56 0 94.5 -36t38.5 -91v-15q0 -55 -38.5 -90t-94.5 -35q-58 0 -96.5 35t-38.5 90zM582 1333v15q0 55 39 91t96 36q56 0 94.5 -36t38.5 -91v-15q0 -55 -38.5 -90t-94.5 -35q-58 0 -96.5 35t-38.5 90z" />
<glyph unicode="&#xa9;" horiz-adv-x="1699" d="M109 713v4q0 149 58 285.5t157 236.5t237 159.5t291 59.5t290.5 -59t235.5 -158t155.5 -235t57.5 -285v-4q0 -149 -58 -285.5t-157 -237t-237 -160t-291 -59.5t-290.5 59t-235.5 158.5t-155.5 235.5t-57.5 285zM186 713q0 -181 86 -333.5t238.5 -241.5t337.5 -89 q186 0 339 90t239.5 243t86.5 335v4q0 181 -86 333t-238 241t-337 89q-186 0 -339.5 -90t-240 -242.5t-86.5 -334.5v-4zM465 723v4q0 167 113 284t284 117q88 0 150 -22.5t116 -65.5q33 -22 33 -61q0 -32 -21.5 -54t-52.5 -22q-21 0 -49 21q-83 65 -176 65q-103 0 -172 -76 t-69 -184v-4q0 -107 69 -183.5t172 -76.5q102 0 189 74q23 18 45 18q29 0 50 -21.5t21 -50.5q0 -33 -22 -51q-62 -54 -128 -81t-159 -27q-168 0 -280.5 115t-112.5 282z" />
<glyph unicode="&#xaa;" horiz-adv-x="798" d="M98 637q0 25 17.5 42t42.5 17h454q25 0 43.5 -17.5t18.5 -41.5t-18.5 -41.5t-43.5 -17.5h-454q-25 0 -42.5 17t-17.5 42zM115 1010v4q0 92 67 141t178 49q74 0 156 -22v10q0 60 -37 92.5t-106 32.5q-56 0 -119 -23q-18 -6 -31 -6q-26 0 -43.5 17.5t-17.5 42.5q0 43 39 57 q87 35 190 35q134 0 199 -68q63 -60 63 -182v-295q0 -28 -21 -48t-50 -20q-27 0 -47.5 18.5t-20.5 45.5v16q-72 -82 -188 -82q-89 0 -150 49t-61 136zM256 1016q0 -39 29.5 -62.5t76.5 -23.5q66 0 110 34.5t44 88.5v37q-64 22 -129 22q-61 0 -96 -24.5t-35 -67.5v-4z" />
<glyph unicode="&#xab;" horiz-adv-x="1241" d="M106 541q0 34 29 71l258 334q39 49 94 49q41 0 70 -30t29 -72q0 -35 -27 -70l-217 -280l221 -287q25 -31 25 -68q0 -43 -30 -72.5t-73 -29.5q-55 0 -86 43l-264 340q-29 40 -29 72zM621 541q0 33 30 71l258 334q34 49 92 49q42 0 71.5 -30t29.5 -72q0 -37 -29 -70 l-215 -280l219 -287q27 -35 27 -68q-2 -43 -31 -72.5t-72 -29.5q-55 0 -86 43l-264 340q-30 42 -30 72z" />
<glyph unicode="&#xad;" horiz-adv-x="835" d="M104 627q0 51 35.5 87t85.5 36h385q50 0 85.5 -36t35.5 -87q0 -49 -35.5 -85t-85.5 -36h-385q-49 0 -85 36t-36 85z" />
<glyph unicode="&#xae;" horiz-adv-x="782" d="M35 1094v2q0 147 104 252.5t252 105.5q150 0 253.5 -104.5t103.5 -251.5v-2q0 -147 -104.5 -253t-252.5 -106q-150 0 -253 105t-103 252zM76 1094q0 -132 90.5 -225t224.5 -93q132 0 224 94t92 226v2q0 132 -91 224.5t-225 92.5q-132 0 -223.5 -93.5t-91.5 -225.5v-2z M244 954v287q0 20 13 33.5t32 13.5h129q68 0 108.5 -31.5t40.5 -91.5q0 -83 -73 -112l55 -68q12 -12 12 -33q0 -19 -12.5 -31t-32.5 -12q-18 0 -37 19l-86 106h-59v-80q0 -19 -13 -32t-32 -13t-32 13t-13 32zM334 1108h78q30 0 46.5 13.5t16.5 37.5q0 51 -63 51h-78v-102z " />
<glyph unicode="&#xaf;" horiz-adv-x="1024" d="M150 1331q0 37 26.5 63.5t63.5 26.5h544q37 0 63.5 -26.5t26.5 -63.5t-26.5 -63.5t-63.5 -26.5h-544q-37 0 -63.5 26.5t-26.5 63.5z" />
<glyph unicode="&#xb0;" horiz-adv-x="964" d="M141 1112v4q0 133 103 231.5t239 98.5q134 0 237 -98.5t103 -231.5v-4q0 -133 -103 -232.5t-237 -99.5q-136 0 -239 99.5t-103 232.5zM289 1112q0 -80 55.5 -138.5t138.5 -58.5q82 0 137.5 58.5t55.5 138.5v4q0 79 -55.5 137t-137.5 58q-83 0 -138.5 -57.5t-55.5 -137.5 v-4z" />
<glyph unicode="&#xb1;" horiz-adv-x="1298" d="M141 104q0 44 31 75.5t74 31.5h807q43 0 73.5 -31.5t30.5 -75.5q0 -43 -30.5 -73.5t-73.5 -30.5h-807q-43 0 -74 30.5t-31 73.5zM141 872q0 44 32.5 76.5t76.5 32.5h289l-2 276q0 47 32.5 80t79.5 33t80 -33t33 -80l-2 -276h287q45 0 77.5 -32.5t32.5 -76.5t-32 -76 t-78 -32h-287l2 -277q0 -47 -33 -79.5t-80 -32.5t-79.5 32.5t-32.5 79.5l2 277h-289q-44 0 -76.5 32t-32.5 76z" />
<glyph unicode="&#xb4;" horiz-adv-x="1024" d="M362 1251q0 19 17 45l117 181q37 59 98 59q50 0 98.5 -25.5t48.5 -54.5q0 -30 -34 -61l-138 -131q-35 -32 -67.5 -44t-77.5 -12q-27 0 -44.5 11.5t-17.5 31.5z" />
<glyph unicode="&#xb6;" horiz-adv-x="1140" d="M82 965v4q0 215 152.5 340t402.5 125h199q54 0 90.5 -36.5t36.5 -90.5v-1192q0 -53 -36.5 -89t-90.5 -36q-53 0 -90 36.5t-37 88.5v385h-37q-170 0 -302 51.5t-210 158.5t-78 255z" />
<glyph unicode="&#xb7;" horiz-adv-x="550" d="M131 618v19q0 60 41.5 100.5t103.5 40.5q60 0 102 -40.5t42 -100.5v-19q0 -61 -42 -102t-102 -41q-62 0 -103.5 41t-41.5 102z" />
<glyph unicode="&#xb8;" horiz-adv-x="1024" d="M291 -238q0 26 16 48l146 210h186l-125 -288q-13 -31 -31 -45.5t-49 -14.5q-40 0 -91.5 30t-51.5 60z" />
<glyph unicode="&#xba;" horiz-adv-x="798" d="M90 1130v5q0 129 89.5 219t221.5 90t220 -89t88 -218v-4q0 -129 -90 -219.5t-222 -90.5q-131 0 -219 89t-88 218zM94 637q0 25 17.5 42t42.5 17h491q25 0 42.5 -17t17.5 -42t-17.5 -42t-42.5 -17h-491q-25 0 -42.5 17t-17.5 42zM233 1133q0 -75 48 -129t120 -54 q73 0 118.5 52t45.5 128v5q0 75 -48 128.5t-120 53.5t-118 -52.5t-46 -127.5v-4z" />
<glyph unicode="&#xbb;" horiz-adv-x="1241" d="M137 893q2 43 31.5 72.5t71.5 29.5q54 0 86 -45l264 -338q31 -43 31 -73q0 -29 -31 -72l-258 -332q-34 -49 -92 -49q-42 0 -71.5 30t-29.5 72q0 37 29 70l215 279l-219 286q-27 35 -27 70zM653 893q0 43 30 72.5t73 29.5q54 0 86 -45l264 -338q31 -43 31 -73 q0 -29 -31 -72l-258 -332q-39 -49 -94 -49q-41 0 -70 30t-29 72q0 35 27 70l217 279l-221 286q-25 36 -25 70z" />
<glyph unicode="&#xbf;" horiz-adv-x="1107" d="M86 397v4q0 94 32 168t90 122.5t129.5 78.5t160.5 45l10 94q5 35 28.5 58.5t57.5 23.5h12q35 0 59 -23t29 -59l21 -176q6 -41 -16 -68.5t-64 -33.5q-297 -28 -297 -221v-4q0 -87 63 -141t170 -54q154 0 279 113q35 28 76 28q47 0 80.5 -33t33.5 -79q0 -53 -41 -88 q-182 -170 -434 -170q-217 0 -348 112t-131 303zM461 1284v19q0 60 41 100.5t104 40.5t104.5 -40.5t41.5 -100.5v-19q0 -62 -41.5 -102.5t-104.5 -40.5t-104 40.5t-41 102.5z" />
<glyph unicode="&#xc0;" horiz-adv-x="1583" d="M86 106q0 26 16 58l533 1188q47 102 151 102h13q102 0 149 -102l533 -1188q14 -25 14 -53q0 -51 -34 -86t-85 -35q-85 0 -123 88l-116 268h-697l-121 -276q-15 -38 -45.5 -59t-70.5 -21q-50 0 -83.5 33.5t-33.5 82.5zM479 1810q0 29 48.5 54.5t99.5 25.5q61 0 98 -59 l117 -180q18 -27 18 -45q0 -20 -17.5 -31.5t-45.5 -11.5q-46 0 -78 11.5t-66 43.5l-139 131q-35 31 -35 61zM537 569h503l-252 580z" />
<glyph unicode="&#xc1;" horiz-adv-x="1583" d="M86 106q0 26 16 58l533 1188q47 102 151 102h13q102 0 149 -102l533 -1188q14 -25 14 -53q0 -51 -34 -86t-85 -35q-85 0 -123 88l-116 268h-697l-121 -276q-15 -38 -45.5 -59t-70.5 -21q-50 0 -83.5 33.5t-33.5 82.5zM537 569h503l-252 580zM721 1606q0 21 16 45l117 180 q37 59 98 59q51 0 99.5 -25.5t48.5 -54.5q0 -30 -35 -61l-137 -131q-35 -32 -67.5 -43.5t-78.5 -11.5q-27 0 -44 11.5t-17 31.5z" />
<glyph unicode="&#xc2;" horiz-adv-x="1583" d="M86 106q0 26 16 58l533 1188q47 102 151 102h13q102 0 149 -102l533 -1188q14 -25 14 -53q0 -51 -34 -86t-85 -35q-85 0 -123 88l-116 268h-697l-121 -276q-15 -38 -45.5 -59t-70.5 -21q-50 0 -83.5 33.5t-33.5 82.5zM473 1604q0 16 25 49l135 170q49 59 119 59h73 q73 0 119 -59l135 -170q25 -33 25 -49q0 -19 -17 -30t-43 -11q-45 0 -78.5 11.5t-72.5 43.5l-107 92l-106 -92q-38 -32 -72 -43.5t-80 -11.5q-24 0 -39.5 10.5t-15.5 30.5zM537 569h503l-252 580z" />
<glyph unicode="&#xc3;" horiz-adv-x="1583" d="M86 106q0 26 16 58l533 1188q47 102 151 102h13q102 0 149 -102l533 -1188q14 -25 14 -53q0 -51 -34 -86t-85 -35q-85 0 -123 88l-116 268h-697l-121 -276q-15 -38 -45.5 -59t-70.5 -21q-50 0 -83.5 33.5t-33.5 82.5zM424 1616q0 19 8 47q34 94 82.5 140t126.5 46 q61 0 162 -41t133 -41q34 0 54 15t40 51q25 41 68 41q30 0 53 -20.5t23 -47.5q0 -16 -9 -47q-34 -94 -82.5 -140t-126.5 -46q-61 0 -161.5 41t-132.5 41q-34 0 -54.5 -15.5t-40.5 -50.5q-25 -41 -67 -41q-30 0 -53 20.5t-23 47.5zM537 569h503l-252 580z" />
<glyph unicode="&#xc4;" horiz-adv-x="1583" d="M86 106q0 26 16 58l533 1188q47 102 151 102h13q102 0 149 -102l533 -1188q14 -25 14 -53q0 -51 -34 -86t-85 -35q-85 0 -123 88l-116 268h-697l-121 -276q-15 -38 -45.5 -59t-70.5 -21q-50 0 -83.5 33.5t-33.5 82.5zM451 1688v14q0 55 39 91t96 36q56 0 94.5 -36 t38.5 -91v-14q0 -55 -38.5 -90t-94.5 -35q-58 0 -96.5 35t-38.5 90zM537 569h503l-252 580zM858 1688v14q0 55 39 91t96 36q56 0 94.5 -36t38.5 -91v-14q0 -55 -38.5 -90t-94.5 -35q-58 0 -96.5 35t-38.5 90z" />
<glyph unicode="&#xc5;" horiz-adv-x="1617" d="M102 106q0 14 15 54l557 1241q-45 30 -72 77t-27 101v4q0 90 70.5 156.5t163.5 66.5t163 -66.5t70 -156.5v-4q0 -53 -26.5 -100.5t-71.5 -77.5l555 -1239q14 -25 14 -51q0 -50 -34.5 -85.5t-85.5 -35.5q-81 0 -123 88l-117 268h-696l-119 -276q-38 -80 -117 -80 q-50 0 -84.5 34t-34.5 82zM553 569h504l-252 580zM682 1579q0 -51 37.5 -88t89.5 -37t89.5 37t37.5 88v4q0 51 -37.5 88t-89.5 37t-89.5 -37t-37.5 -88v-4z" />
<glyph unicode="&#xc6;" horiz-adv-x="2140" d="M70 92q0 42 20 72l690 1182q50 88 148 88h985q46 0 79 -33.5t33 -79.5q0 -47 -33 -80t-79 -33h-664v-372h572q46 0 79 -34t33 -81q0 -46 -33 -78.5t-79 -32.5h-572v-385h674q46 0 79.5 -33t33.5 -79q0 -47 -33.5 -80t-79.5 -33h-799q-54 0 -90.5 36.5t-36.5 90.5v219 h-540l-166 -289q-41 -69 -111 -69q-46 0 -78 30t-32 74zM586 569h411v645h-41z" />
<glyph unicode="&#xc7;" horiz-adv-x="1511" d="M121 713v4q0 152 55 288t151 236t235 158.5t298 58.5q156 0 273 -42t219 -120q49 -36 49 -100q0 -52 -36 -87.5t-89 -35.5q-43 0 -76 25q-158 129 -342 129q-202 0 -337.5 -146.5t-135.5 -359.5v-4q0 -213 135 -360.5t338 -147.5q109 0 193 33.5t166 103.5q33 29 75 29 q47 0 83 -35t36 -82q0 -54 -41 -90q-101 -90 -214 -137.5t-263 -53.5l-105 -245q-13 -31 -30.5 -45.5t-48.5 -14.5q-40 0 -92 30t-52 60q0 24 17 48l123 180q-169 31 -302 133.5t-207.5 256.5t-74.5 333z" />
<glyph unicode="&#xc8;" horiz-adv-x="1372" d="M184 127v1180q0 54 36.5 90.5t90.5 36.5h834q46 0 79 -33.5t33 -79.5q0 -47 -33 -80t-79 -33h-709v-372h617q46 0 79 -34t33 -81q0 -46 -33 -78.5t-79 -32.5h-617v-385h719q46 0 79.5 -33t33.5 -79q0 -47 -33.5 -80t-79.5 -33h-844q-54 0 -90.5 36.5t-36.5 90.5z M408 1790q0 29 48.5 54.5t98.5 25.5q61 0 98 -60l117 -180q18 -27 18 -45q0 -20 -17.5 -31.5t-45.5 -11.5q-45 0 -77 11.5t-66 43.5l-140 132q-34 31 -34 61z" />
<glyph unicode="&#xc9;" horiz-adv-x="1372" d="M184 127v1180q0 54 36.5 90.5t90.5 36.5h834q46 0 79 -33.5t33 -79.5q0 -47 -33 -80t-79 -33h-709v-372h617q46 0 79 -34t33 -81q0 -46 -33 -78.5t-79 -32.5h-617v-385h719q46 0 79.5 -33t33.5 -79q0 -47 -33.5 -80t-79.5 -33h-844q-54 0 -90.5 36.5t-36.5 90.5z M651 1585q0 19 17 45l116 180q37 60 99 60q50 0 98.5 -25.5t48.5 -54.5q0 -30 -35 -61l-137 -132q-35 -32 -67.5 -43.5t-77.5 -11.5q-27 0 -44.5 11.5t-17.5 31.5z" />
<glyph unicode="&#xca;" horiz-adv-x="1372" d="M184 127v1180q0 54 36.5 90.5t90.5 36.5h834q46 0 79 -33.5t33 -79.5q0 -47 -33 -80t-79 -33h-709v-372h617q46 0 79 -34t33 -81q0 -46 -33 -78.5t-79 -32.5h-617v-385h719q46 0 79.5 -33t33.5 -79q0 -47 -33.5 -80t-79.5 -33h-844q-54 0 -90.5 36.5t-36.5 90.5z M403 1583q0 16 25 49l135 170q26 30 52.5 45t66.5 15h74q71 0 118 -60l136 -170q24 -32 24 -49q0 -20 -16.5 -30.5t-42.5 -10.5q-45 0 -79 11.5t-73 43.5l-106 93l-107 -93q-38 -32 -71.5 -43.5t-79.5 -11.5q-24 0 -40 10.5t-16 30.5z" />
<glyph unicode="&#xcb;" horiz-adv-x="1372" d="M184 127v1180q0 54 36.5 90.5t90.5 36.5h834q46 0 79 -33.5t33 -79.5q0 -47 -33 -80t-79 -33h-709v-372h617q46 0 79 -34t33 -81q0 -46 -33 -78.5t-79 -32.5h-617v-385h719q46 0 79.5 -33t33.5 -79q0 -47 -33.5 -80t-79.5 -33h-844q-54 0 -90.5 36.5t-36.5 90.5z M381 1667v14q0 55 39 91t96 36q56 0 94.5 -36t38.5 -91v-14q0 -55 -38.5 -90t-94.5 -35q-58 0 -96.5 35t-38.5 90zM788 1667v14q0 55 39 91t97 36q56 0 94.5 -36t38.5 -91v-14q0 -55 -38.5 -90t-94.5 -35q-58 0 -97 35t-39 90z" />
<glyph unicode="&#xcc;" horiz-adv-x="649" d="M14 1790q0 29 48.5 54.5t99.5 25.5q61 0 98 -60l117 -180q18 -27 18 -45q0 -20 -17.5 -31.5t-45.5 -11.5q-46 0 -78 11.5t-66 43.5l-139 132q-35 31 -35 61zM199 115v1204q0 53 36.5 89t90.5 36q52 0 88.5 -36t36.5 -89v-1204q0 -53 -36.5 -89t-88.5 -36q-54 0 -90.5 36 t-36.5 89z" />
<glyph unicode="&#xcd;" horiz-adv-x="649" d="M199 115v1204q0 53 36.5 89t90.5 36q52 0 88.5 -36t36.5 -89v-1204q0 -53 -36.5 -89t-88.5 -36q-54 0 -90.5 36t-36.5 89zM258 1585q0 21 16 45l117 180q37 60 98 60q51 0 99.5 -25.5t48.5 -54.5q0 -30 -35 -61l-137 -132q-35 -32 -67.5 -43.5t-78.5 -11.5 q-27 0 -44 11.5t-17 31.5z" />
<glyph unicode="&#xce;" horiz-adv-x="649" d="M10 1583q0 16 25 49l135 170q26 30 52.5 45t66.5 15h73q72 0 119 -60l135 -170q25 -33 25 -49q0 -20 -16.5 -30.5t-42.5 -10.5q-45 0 -79 11.5t-73 43.5l-106 93l-107 -93q-38 -32 -71.5 -43.5t-79.5 -11.5q-24 0 -40 10.5t-16 30.5zM199 115v1204q0 53 36.5 89t90.5 36 q52 0 88.5 -36t36.5 -89v-1204q0 -53 -36.5 -89t-88.5 -36q-54 0 -90.5 36t-36.5 89z" />
<glyph unicode="&#xcf;" horiz-adv-x="649" d="M-12 1667v14q0 55 39 91t96 36q56 0 94.5 -36t38.5 -91v-14q0 -55 -38.5 -90t-94.5 -35q-58 0 -96.5 35t-38.5 90zM199 115v1204q0 53 36.5 89t90.5 36q52 0 88.5 -36t36.5 -89v-1204q0 -53 -36.5 -89t-88.5 -36q-54 0 -90.5 36t-36.5 89zM395 1667v14q0 55 39 91t96 36 q56 0 95 -36t39 -91v-14q0 -55 -39 -90t-95 -35q-58 0 -96.5 35t-38.5 90z" />
<glyph unicode="&#xd0;" horiz-adv-x="1662" d="M82 721q0 47 32.5 80t78.5 33h53v473q0 54 36.5 90.5t90.5 36.5h407q166 0 309 -55t242 -150t155 -226.5t56 -281.5v-4q0 -150 -56 -282t-155 -228t-242 -151.5t-309 -55.5h-407q-54 0 -90.5 36.5t-36.5 90.5v481h-53q-46 0 -78.5 33.5t-32.5 79.5zM496 229h284 q224 0 361 135.5t137 348.5v4q0 213 -137.5 350t-360.5 137h-284v-370h260q46 0 78 -33t32 -80q0 -46 -32.5 -79.5t-77.5 -33.5h-260v-379z" />
<glyph unicode="&#xd1;" horiz-adv-x="1617" d="M184 113v1202q0 53 36.5 90t90.5 37h27q42 0 71.5 -18.5t59.5 -55.5l717 -928v881q0 51 36 87t87 36q52 0 88.5 -36t36.5 -87v-1204q0 -53 -35.5 -89t-87.5 -36h-11q-72 0 -131 76l-737 954v-909q0 -51 -36 -87t-87 -36q-52 0 -88.5 36t-36.5 87zM442 1595q0 15 9 47 q34 95 82 141t126 46q61 0 162 -41t133 -41q34 0 54.5 15t40.5 50q25 41 67 41q31 0 53.5 -20.5t22.5 -46.5q0 -19 -8 -47q-34 -94 -82.5 -140.5t-126.5 -46.5q-61 0 -162 41t-133 41q-34 0 -54 -15t-40 -50q-25 -41 -68 -41q-31 0 -53.5 20.5t-22.5 46.5z" />
<glyph unicode="&#xd2;" horiz-adv-x="1740" d="M121 713v4q0 150 56 285.5t154 236t239 160t302 59.5t301.5 -58.5t238 -158.5t153 -235t55.5 -285v-4q0 -150 -56 -286t-154 -236.5t-239.5 -160t-302.5 -59.5q-215 0 -387 100.5t-266 268.5t-94 369zM385 717q0 -139 61.5 -255t174 -184.5t251.5 -68.5t250.5 67.5 t172.5 182.5t61 254v4q0 139 -62 255.5t-174.5 185.5t-251.5 69t-250.5 -68t-172 -183.5t-60.5 -254.5v-4zM559 1810q0 29 48.5 54.5t99.5 25.5q61 0 98 -59l117 -180q18 -27 18 -45q0 -20 -17.5 -31.5t-45.5 -11.5q-46 0 -78 11.5t-66 43.5l-139 131q-35 31 -35 61z" />
<glyph unicode="&#xd3;" horiz-adv-x="1740" d="M121 713v4q0 150 56 285.5t154 236t239 160t302 59.5t301.5 -58.5t238 -158.5t153 -235t55.5 -285v-4q0 -150 -56 -286t-154 -236.5t-239.5 -160t-302.5 -59.5q-215 0 -387 100.5t-266 268.5t-94 369zM385 717q0 -139 61.5 -255t174 -184.5t251.5 -68.5t250.5 67.5 t172.5 182.5t61 254v4q0 139 -62 255.5t-174.5 185.5t-251.5 69t-250.5 -68t-172 -183.5t-60.5 -254.5v-4zM801 1606q0 21 16 45l117 180q37 59 98 59q51 0 99.5 -25.5t48.5 -54.5q0 -30 -35 -61l-137 -131q-35 -32 -67.5 -43.5t-78.5 -11.5q-27 0 -44 11.5t-17 31.5z" />
<glyph unicode="&#xd4;" horiz-adv-x="1740" d="M121 713v4q0 150 56 285.5t154 236t239 160t302 59.5t301.5 -58.5t238 -158.5t153 -235t55.5 -285v-4q0 -150 -56 -286t-154 -236.5t-239.5 -160t-302.5 -59.5q-215 0 -387 100.5t-266 268.5t-94 369zM385 717q0 -139 61.5 -255t174 -184.5t251.5 -68.5t250.5 67.5 t172.5 182.5t61 254v4q0 139 -62 255.5t-174.5 185.5t-251.5 69t-250.5 -68t-172 -183.5t-60.5 -254.5v-4zM555 1604q0 16 25 49l135 170q49 59 119 59h73q73 0 119 -59l135 -170q25 -33 25 -49q0 -19 -17 -30t-43 -11q-45 0 -78.5 11.5t-72.5 43.5l-107 92l-106 -92 q-38 -32 -72 -43.5t-80 -11.5q-24 0 -39.5 10.5t-15.5 30.5z" />
<glyph unicode="&#xd5;" horiz-adv-x="1740" d="M121 713v4q0 150 56 285.5t154 236t239 160t302 59.5t301.5 -58.5t238 -158.5t153 -235t55.5 -285v-4q0 -150 -56 -286t-154 -236.5t-239.5 -160t-302.5 -59.5q-215 0 -387 100.5t-266 268.5t-94 369zM385 717q0 -139 61.5 -255t174 -184.5t251.5 -68.5t250.5 67.5 t172.5 182.5t61 254v4q0 139 -62 255.5t-174.5 185.5t-251.5 69t-250.5 -68t-172 -183.5t-60.5 -254.5v-4zM504 1616q0 19 8 47q34 94 82.5 140t126.5 46q61 0 162 -41t133 -41q34 0 54 15t40 51q25 41 68 41q30 0 52.5 -20.5t22.5 -47.5q0 -19 -8 -47q-34 -94 -82.5 -140 t-126.5 -46q-61 0 -162 41t-133 41q-34 0 -54 -15t-40 -51q-25 -41 -67 -41q-30 0 -53 20.5t-23 47.5z" />
<glyph unicode="&#xd6;" horiz-adv-x="1740" d="M121 713v4q0 150 56 285.5t154 236t239 160t302 59.5t301.5 -58.5t238 -158.5t153 -235t55.5 -285v-4q0 -150 -56 -286t-154 -236.5t-239.5 -160t-302.5 -59.5q-215 0 -387 100.5t-266 268.5t-94 369zM385 717q0 -139 61.5 -255t174 -184.5t251.5 -68.5t250.5 67.5 t172.5 182.5t61 254v4q0 139 -62 255.5t-174.5 185.5t-251.5 69t-250.5 -68t-172 -183.5t-60.5 -254.5v-4zM532 1688v14q0 55 39 91t97 36q56 0 94.5 -36t38.5 -91v-14q0 -55 -38.5 -90t-94.5 -35q-58 0 -97 35t-39 90zM940 1688v14q0 55 39 91t96 36q56 0 94.5 -36 t38.5 -91v-14q0 -55 -38.5 -90t-94.5 -35q-58 0 -96.5 35t-38.5 90z" />
<glyph unicode="&#xd7;" horiz-adv-x="1298" d="M197 375q0 51 36 82l267 262l-271 262q-32 36 -32 82t32 78.5t78 32.5q47 0 82 -35l262 -269l264 269q30 35 78 35q46 0 77.5 -31.5t31.5 -77.5q0 -48 -37 -80l-266 -262l268 -262q35 -35 35 -82q0 -46 -32.5 -78.5t-78.5 -32.5q-45 0 -82 33l-262 270l-264 -268 q-30 -35 -80 -35q-44 0 -75 31.5t-31 75.5z" />
<glyph unicode="&#xd8;" horiz-adv-x="1740" d="M121 713v4q0 150 56 285.5t154 236t239 160t302 59.5q256 0 447 -139l98 100q35 35 78 35q38 0 63 -23.5t25 -56.5q0 -43 -35 -78l-96 -100q168 -204 168 -475v-4q0 -150 -56 -286t-154 -236.5t-239.5 -160t-302.5 -59.5q-252 0 -446 138l-98 -99q-31 -34 -78 -34 q-38 0 -63 23.5t-25 57.5q0 41 35 76l96 101q-168 204 -168 475zM381 717q0 -162 86 -293l684 715q-126 92 -283 92q-105 0 -196 -40.5t-154.5 -109t-100 -162.5t-36.5 -198v-4zM588 293q126 -90 284 -90q139 0 251.5 68.5t174.5 185t62 256.5v4q0 157 -86 293z" />
<glyph unicode="&#xd9;" horiz-adv-x="1550" d="M162 608v711q0 53 36.5 89t90.5 36q53 0 89 -36t36 -89v-701q0 -197 95.5 -302t266.5 -105q170 0 265.5 101t95.5 296v711q0 53 36.5 89t90.5 36q52 0 88.5 -36t36.5 -89v-698q0 -314 -164.5 -479t-452.5 -165q-285 0 -447.5 162t-162.5 469zM463 1790q0 29 48.5 54.5 t98.5 25.5q62 0 99 -60l116 -180q19 -29 19 -45q0 -20 -18 -31.5t-46 -11.5q-46 0 -77.5 11.5t-65.5 43.5l-139 132q-35 31 -35 61z" />
<glyph unicode="&#xda;" horiz-adv-x="1550" d="M162 608v711q0 53 36.5 89t90.5 36q53 0 89 -36t36 -89v-701q0 -197 95.5 -302t266.5 -105q170 0 265.5 101t95.5 296v711q0 53 36.5 89t90.5 36q52 0 88.5 -36t36.5 -89v-698q0 -314 -164.5 -479t-452.5 -165q-285 0 -447.5 162t-162.5 469zM707 1585q0 21 16 45 l117 180q37 60 98 60q50 0 98.5 -25.5t48.5 -54.5q0 -30 -34 -61l-138 -132q-35 -32 -67.5 -43.5t-77.5 -11.5q-27 0 -44 11.5t-17 31.5z" />
<glyph unicode="&#xdb;" horiz-adv-x="1550" d="M162 608v711q0 53 36.5 89t90.5 36q53 0 89 -36t36 -89v-701q0 -197 95.5 -302t266.5 -105q170 0 265.5 101t95.5 296v711q0 53 36.5 89t90.5 36q52 0 88.5 -36t36.5 -89v-698q0 -314 -164.5 -479t-452.5 -165q-285 0 -447.5 162t-162.5 469zM459 1583q0 17 24 49 l135 170q26 30 52.5 45t66.5 15h74q72 0 119 -60l135 -170q25 -33 25 -49q0 -19 -17 -30t-43 -11q-45 0 -78.5 11.5t-72.5 43.5l-107 93l-106 -93q-38 -32 -72 -43.5t-80 -11.5q-24 0 -39.5 10.5t-15.5 30.5z" />
<glyph unicode="&#xdc;" horiz-adv-x="1550" d="M162 608v711q0 53 36.5 89t90.5 36q53 0 89 -36t36 -89v-701q0 -197 95.5 -302t266.5 -105q170 0 265.5 101t95.5 296v711q0 53 36.5 89t90.5 36q52 0 88.5 -36t36.5 -89v-698q0 -314 -164.5 -479t-452.5 -165q-285 0 -447.5 162t-162.5 469zM436 1667v14q0 55 39 91 t96 36q56 0 95 -36t39 -91v-14q0 -55 -39 -90t-95 -35q-58 0 -96.5 35t-38.5 90zM844 1667v14q0 55 39 91t96 36q56 0 94.5 -36t38.5 -91v-14q0 -55 -38.5 -90t-94.5 -35q-58 0 -96.5 35t-38.5 90z" />
<glyph unicode="&#xdd;" horiz-adv-x="1425" d="M66 1323q0 51 36.5 86t90.5 35q70 0 122 -76l400 -575l405 577q52 76 121 76q54 0 88.5 -35.5t34.5 -87.5q0 -41 -35 -90l-489 -670v-448q0 -53 -36.5 -89t-90.5 -36q-53 0 -89 36t-36 89v442l-494 678q-28 44 -28 88zM645 1585q0 19 17 45l116 180q37 60 99 60 q50 0 98.5 -25.5t48.5 -54.5q0 -30 -35 -61l-137 -132q-35 -32 -67.5 -43.5t-77.5 -11.5q-27 0 -44.5 11.5t-17.5 31.5z" />
<glyph unicode="&#xde;" horiz-adv-x="1378" d="M184 115v1204q0 53 36.5 89t90.5 36q53 0 89 -36t36 -89v-109h314q251 0 397.5 -130.5t146.5 -348.5v-4q0 -157 -78.5 -269.5t-206 -166t-288.5 -53.5h-285v-123q0 -53 -36 -89t-89 -36q-54 0 -90.5 36t-36.5 89zM436 463h293q141 0 225 72t84 186v4q0 124 -82.5 190 t-226.5 66h-293v-518z" />
<glyph unicode="&#xdf;" horiz-adv-x="1269" d="M156 111v917q0 222 131 351.5t356 129.5q204 0 323 -109.5t119 -275.5v-4q0 -87 -33.5 -157.5t-80.5 -113t-113 -79.5q64 -21 117 -51.5t98 -73.5t70.5 -104.5t25.5 -134.5v-5q0 -96 -39 -174.5t-104.5 -128t-147 -76t-169.5 -28.5q-52 0 -82.5 28.5t-30.5 73.5 q0 37 24 63.5t64 35.5q238 38 238 213v4q0 157 -236 217q-90 27 -90 108q0 69 53 103q189 105 189 258v4q0 89 -56.5 142.5t-150.5 53.5q-102 0 -166 -71.5t-64 -190.5v-925q0 -51 -36 -86t-89 -35q-51 0 -85.5 35t-34.5 86z" />
<glyph unicode="&#xe0;" d="M84 311v4q0 170 121 259.5t325 89.5q148 0 291 -46v27q0 115 -68.5 175.5t-199.5 60.5q-132 0 -240 -43q-24 -7 -39 -7q-43 0 -73.5 30t-30.5 73q0 33 19.5 60t48.5 38q167 64 348 64q240 0 358 -121q117 -114 117 -334v-532q0 -51 -35 -85t-86 -34q-53 0 -87 31t-34 73 v41q-133 -158 -352 -158q-104 0 -189.5 37.5t-139.5 114.5t-54 182zM291 1456q0 29 48.5 54.5t98.5 25.5q62 0 99 -59l116 -181q19 -28 19 -45q0 -20 -18 -31.5t-46 -11.5q-45 0 -77 12t-66 44l-139 131q-35 31 -35 61zM326 322q0 -76 59.5 -120t151.5 -44q124 0 206 64.5 t82 166.5v74q-108 43 -245 43q-120 0 -187 -47.5t-67 -132.5v-4z" />
<glyph unicode="&#xe1;" d="M84 311v4q0 170 121 259.5t325 89.5q148 0 291 -46v27q0 115 -68.5 175.5t-199.5 60.5q-132 0 -240 -43q-24 -7 -39 -7q-43 0 -73.5 30t-30.5 73q0 33 19.5 60t48.5 38q167 64 348 64q240 0 358 -121q117 -114 117 -334v-532q0 -51 -35 -85t-86 -34q-53 0 -87 31t-34 73 v41q-133 -158 -352 -158q-104 0 -189.5 37.5t-139.5 114.5t-54 182zM326 322q0 -76 59.5 -120t151.5 -44q124 0 206 64.5t82 166.5v74q-108 43 -245 43q-120 0 -187 -47.5t-67 -132.5v-4zM535 1251q0 21 16 45l117 181q37 59 98 59q50 0 98.5 -25.5t48.5 -54.5 q0 -30 -34 -61l-138 -131q-35 -32 -67.5 -44t-77.5 -12q-27 0 -44 11.5t-17 31.5z" />
<glyph unicode="&#xe2;" d="M84 311v4q0 170 121 259.5t325 89.5q148 0 291 -46v27q0 115 -68.5 175.5t-199.5 60.5q-132 0 -240 -43q-24 -7 -39 -7q-43 0 -73.5 30t-30.5 73q0 33 19.5 60t48.5 38q167 64 348 64q240 0 358 -121q117 -114 117 -334v-532q0 -51 -35 -85t-86 -34q-53 0 -87 31t-34 73 v41q-133 -158 -352 -158q-104 0 -189.5 37.5t-139.5 114.5t-54 182zM287 1249q0 17 24 49l135 170q26 30 52.5 45t66.5 15h74q72 0 119 -60l135 -170q25 -33 25 -49q0 -19 -17 -30t-43 -11q-45 0 -78 11.5t-73 44.5l-107 92l-106 -92q-38 -32 -72.5 -44t-79.5 -12 q-24 0 -39.5 10.5t-15.5 30.5zM326 322q0 -76 59.5 -120t151.5 -44q124 0 206 64.5t82 166.5v74q-108 43 -245 43q-120 0 -187 -47.5t-67 -132.5v-4z" />
<glyph unicode="&#xe3;" d="M84 311v4q0 170 121 259.5t325 89.5q148 0 291 -46v27q0 115 -68.5 175.5t-199.5 60.5q-132 0 -240 -43q-24 -7 -39 -7q-43 0 -73.5 30t-30.5 73q0 33 19.5 60t48.5 38q167 64 348 64q240 0 358 -121q117 -114 117 -334v-532q0 -51 -35 -85t-86 -34q-53 0 -87 31t-34 73 v41q-133 -158 -352 -158q-104 0 -189.5 37.5t-139.5 114.5t-54 182zM238 1262q0 19 8 47q34 94 82.5 140t126.5 46q61 0 162 -41t133 -41q34 0 54 15t40 51q25 41 67 41q30 0 53 -20.5t23 -47.5q0 -19 -8 -47q-34 -94 -82.5 -140t-126.5 -46q-61 0 -162 40.5t-133 40.5 q-34 0 -54 -15t-40 -50q-25 -41 -68 -41q-30 0 -52.5 20.5t-22.5 47.5zM326 322q0 -76 59.5 -120t151.5 -44q124 0 206 64.5t82 166.5v74q-108 43 -245 43q-120 0 -187 -47.5t-67 -132.5v-4z" />
<glyph unicode="&#xe4;" d="M84 311v4q0 170 121 259.5t325 89.5q148 0 291 -46v27q0 115 -68.5 175.5t-199.5 60.5q-132 0 -240 -43q-24 -7 -39 -7q-43 0 -73.5 30t-30.5 73q0 33 19.5 60t48.5 38q167 64 348 64q240 0 358 -121q117 -114 117 -334v-532q0 -51 -35 -85t-86 -34q-53 0 -87 31t-34 73 v41q-133 -158 -352 -158q-104 0 -189.5 37.5t-139.5 114.5t-54 182zM264 1333v15q0 55 39 91t96 36q56 0 94.5 -36t38.5 -91v-15q0 -55 -38.5 -90t-94.5 -35q-58 0 -96.5 35t-38.5 90zM326 322q0 -76 59.5 -120t151.5 -44q124 0 206 64.5t82 166.5v74q-108 43 -245 43 q-120 0 -187 -47.5t-67 -132.5v-4zM672 1333v15q0 55 39 91t96 36q56 0 94.5 -36t38.5 -91v-15q0 -55 -38.5 -90t-94.5 -35q-58 0 -96.5 35t-38.5 90z" />
<glyph unicode="&#xe5;" d="M84 311v4q0 170 121 259.5t325 89.5q148 0 291 -46v27q0 115 -68.5 175.5t-199.5 60.5q-132 0 -240 -43q-24 -7 -39 -7q-43 0 -73.5 30t-30.5 73q0 33 19.5 60t48.5 38q167 64 348 64q240 0 358 -121q117 -114 117 -334v-532q0 -51 -35 -85t-86 -34q-53 0 -87 31t-34 73 v41q-133 -158 -352 -158q-104 0 -189.5 37.5t-139.5 114.5t-54 182zM326 322q0 -76 59.5 -120t151.5 -44q124 0 206 64.5t82 166.5v74q-108 43 -245 43q-120 0 -187 -47.5t-67 -132.5v-4zM369 1438v4q0 91 70 157t163 66t163.5 -66t70.5 -157v-4q0 -90 -70.5 -157 t-163.5 -67t-163 67t-70 157zM475 1438q0 -51 37.5 -88t89.5 -37t89.5 37t37.5 88v4q0 51 -37.5 88t-89.5 37t-89.5 -37t-37.5 -88v-4z" />
<glyph unicode="&#xe6;" horiz-adv-x="1949" d="M84 311v4q0 170 120 259.5t322 89.5q144 0 287 -46v27q0 115 -67.5 175.5t-196.5 60.5q-125 0 -236 -43q-24 -7 -39 -7q-43 0 -73.5 30t-30.5 73q0 33 19.5 60t48.5 38q159 64 344 64q280 0 381 -176q66 87 163.5 135.5t214.5 48.5q98 0 182 -31.5t143 -84t101 -121.5 t62 -144.5t20 -151.5q0 -52 -33 -85t-83 -33h-676q20 -130 104 -202.5t205 -72.5q143 0 258 94q26 23 62 23q43 0 71.5 -28.5t28.5 -71.5q0 -45 -35 -76q-160 -144 -389 -144q-125 0 -234.5 49t-183.5 136q-221 -183 -452 -183q-175 0 -291.5 89.5t-116.5 244.5zM326 322 q0 -73 59 -117.5t147 -44.5q174 0 322 139q-33 84 -41 166q-112 41 -238 41q-118 0 -183.5 -47.5t-65.5 -132.5v-4zM1053 616h557q-13 126 -84.5 205.5t-190.5 79.5q-112 0 -188 -78.5t-94 -206.5z" />
<glyph unicode="&#xe7;" horiz-adv-x="1169" d="M96 535v4q0 153 72 282t202 206t289 77q224 0 379 -135q39 -34 39 -86q0 -47 -33.5 -80t-80.5 -33q-41 0 -74 25q-109 92 -232 92q-133 0 -223 -100.5t-90 -243.5v-4q0 -147 91.5 -246.5t232.5 -99.5q126 0 241 96q30 26 68 26q44 0 75 -32t31 -76q0 -51 -34 -78 q-148 -142 -349 -152l-106 -245q-13 -31 -31 -45.5t-49 -14.5q-40 0 -91.5 30t-51.5 60q0 26 16 48l125 184q-184 44 -300 195t-116 346z" />
<glyph unicode="&#xe8;" horiz-adv-x="1236" d="M96 537v4q0 154 67 282.5t189 204.5t273 76q100 0 185.5 -31.5t144.5 -84t101.5 -121.5t62.5 -144.5t20 -151.5q0 -51 -34.5 -84.5t-82.5 -33.5h-678q20 -130 104.5 -202.5t206.5 -72.5q141 0 256 94q30 23 64 23q41 0 69.5 -28.5t28.5 -71.5t-33 -76 q-160 -144 -389 -144q-156 0 -282 70t-199.5 199t-73.5 293zM309 1456q0 29 48.5 54.5t99.5 25.5q61 0 98 -59l117 -181q18 -27 18 -45q0 -20 -17.5 -31.5t-45.5 -11.5q-45 0 -77.5 12t-66.5 44l-139 131q-35 31 -35 61zM342 616h555q-13 126 -84.5 205.5t-189.5 79.5 q-112 0 -187.5 -78.5t-93.5 -206.5z" />
<glyph unicode="&#xe9;" horiz-adv-x="1236" d="M96 537v4q0 154 67 282.5t189 204.5t273 76q100 0 185.5 -31.5t144.5 -84t101.5 -121.5t62.5 -144.5t20 -151.5q0 -51 -34.5 -84.5t-82.5 -33.5h-678q20 -130 104.5 -202.5t206.5 -72.5q141 0 256 94q30 23 64 23q41 0 69.5 -28.5t28.5 -71.5t-33 -76 q-160 -144 -389 -144q-156 0 -282 70t-199.5 199t-73.5 293zM342 616h555q-13 126 -84.5 205.5t-189.5 79.5q-112 0 -187.5 -78.5t-93.5 -206.5zM553 1251q0 21 16 45l117 181q37 59 98 59q51 0 99.5 -25.5t48.5 -54.5q0 -30 -35 -61l-137 -131q-35 -32 -68 -44t-78 -12 q-27 0 -44 11.5t-17 31.5z" />
<glyph unicode="&#xea;" horiz-adv-x="1236" d="M96 537v4q0 154 67 282.5t189 204.5t273 76q100 0 185.5 -31.5t144.5 -84t101.5 -121.5t62.5 -144.5t20 -151.5q0 -51 -34.5 -84.5t-82.5 -33.5h-678q20 -130 104.5 -202.5t206.5 -72.5q141 0 256 94q30 23 64 23q41 0 69.5 -28.5t28.5 -71.5t-33 -76 q-160 -144 -389 -144q-156 0 -282 70t-199.5 199t-73.5 293zM305 1249q0 16 25 49l135 170q26 30 52.5 45t66.5 15h73q72 0 119 -60l135 -170q25 -33 25 -49q0 -20 -16.5 -30.5t-42.5 -10.5q-45 0 -78.5 12t-73.5 44l-107 92l-106 -92q-38 -32 -72.5 -44t-79.5 -12 q-24 0 -39.5 10.5t-15.5 30.5zM342 616h555q-13 126 -84.5 205.5t-189.5 79.5q-112 0 -187.5 -78.5t-93.5 -206.5z" />
<glyph unicode="&#xeb;" horiz-adv-x="1236" d="M96 537v4q0 154 67 282.5t189 204.5t273 76q100 0 185.5 -31.5t144.5 -84t101.5 -121.5t62.5 -144.5t20 -151.5q0 -51 -34.5 -84.5t-82.5 -33.5h-678q20 -130 104.5 -202.5t206.5 -72.5q141 0 256 94q30 23 64 23q41 0 69.5 -28.5t28.5 -71.5t-33 -76 q-160 -144 -389 -144q-156 0 -282 70t-199.5 199t-73.5 293zM283 1333v15q0 55 39 91t96 36q56 0 94.5 -36t38.5 -91v-15q0 -55 -38.5 -90t-94.5 -35q-58 0 -96.5 35t-38.5 90zM342 616h555q-13 126 -84.5 205.5t-189.5 79.5q-112 0 -187.5 -78.5t-93.5 -206.5zM690 1333v15 q0 55 39 91t96 36q56 0 94.5 -36t38.5 -91v-15q0 -55 -38.5 -90t-94.5 -35q-58 0 -96.5 35t-38.5 90z" />
<glyph unicode="&#xec;" horiz-adv-x="585" d="M-18 1456q0 29 48.5 54.5t98.5 25.5q61 0 98 -59l117 -181q18 -27 18 -45q0 -20 -17.5 -31.5t-45.5 -11.5q-45 0 -77 12t-66 44l-140 131q-34 31 -34 61zM170 113v856q0 53 35.5 89t87.5 36q53 0 89 -36t36 -89v-856q0 -52 -36 -87.5t-89 -35.5q-51 0 -87 35.5t-36 87.5z " />
<glyph unicode="&#xed;" horiz-adv-x="585" d="M170 113v856q0 53 35.5 89t87.5 36q53 0 89 -36t36 -89v-856q0 -52 -36 -87.5t-89 -35.5q-51 0 -87 35.5t-36 87.5zM225 1251q0 19 17 45l116 181q37 59 99 59q50 0 98.5 -25.5t48.5 -54.5q0 -30 -35 -61l-137 -131q-35 -32 -67.5 -44t-77.5 -12q-27 0 -44.5 11.5 t-17.5 31.5z" />
<glyph unicode="&#xee;" horiz-adv-x="585" d="M-23 1249q0 16 25 49l135 170q26 30 52.5 45t66.5 15h74q72 0 119 -60l135 -170q24 -32 24 -49q0 -20 -16.5 -30.5t-42.5 -10.5q-45 0 -78.5 12t-73.5 44l-106 92l-107 -92q-38 -32 -72 -44t-79 -12q-24 0 -40 10.5t-16 30.5zM170 113v856q0 53 35.5 89t87.5 36 q53 0 89 -36t36 -89v-856q0 -52 -36 -87.5t-89 -35.5q-51 0 -87 35.5t-36 87.5z" />
<glyph unicode="&#xef;" horiz-adv-x="585" d="M-45 1333v15q0 55 39 91t96 36q56 0 94.5 -36t38.5 -91v-15q0 -55 -38.5 -90t-94.5 -35q-58 0 -96.5 35t-38.5 90zM170 113v856q0 53 35.5 89t87.5 36q53 0 89 -36t36 -89v-856q0 -52 -36 -87.5t-89 -35.5q-51 0 -87 35.5t-36 87.5zM362 1333v15q0 55 39 91t97 36 q56 0 94.5 -36t38.5 -91v-15q0 -55 -38.5 -90t-94.5 -35q-58 0 -97 35t-39 90z" />
<glyph unicode="&#xf0;" horiz-adv-x="1314" d="M96 510q0 214 135.5 349.5t339.5 135.5q83 0 148.5 -20.5t136.5 -63.5l-213 293l-223 -98q-15 -6 -35 -6q-32 0 -55 23t-23 55q0 53 55 73l187 82q-21 30 -21 66q0 46 33 79t80 33q60 0 98 -55l23 -33l178 78q24 8 35 8q32 0 55 -23.5t23 -55.5q0 -53 -54 -74l-147 -64 l184 -262q94 -137 136 -251.5t42 -248.5q0 -112 -39.5 -212.5t-111 -177t-179.5 -121t-237 -44.5q-235 0 -393 156t-158 379zM340 504q0 -130 90 -224t227 -94q140 0 227 92.5t87 227.5q0 129 -91 218t-231 89q-139 0 -224 -87.5t-85 -221.5z" />
<glyph unicode="&#xf1;" horiz-adv-x="1269" d="M156 113v856q0 53 35.5 89t87.5 36t88 -36t36 -89v-54q132 189 338 189q181 0 283 -112t102 -302v-577q0 -53 -35 -88t-87 -35q-53 0 -89 35.5t-36 87.5v501q0 126 -61 195.5t-171 69.5q-109 0 -176.5 -72.5t-67.5 -196.5v-497q0 -52 -35.5 -87.5t-88.5 -35.5 q-51 0 -87 35.5t-36 87.5zM272 1262q0 16 9 47q34 94 82 140t126 46q61 0 162 -41t133 -41q34 0 54.5 15.5t40.5 50.5q25 41 67 41q30 0 53 -20.5t23 -47.5q0 -19 -8 -47q-34 -94 -82.5 -140t-126.5 -46q-61 0 -162 40.5t-133 40.5q-34 0 -54 -15t-40 -50q-25 -41 -68 -41 q-30 0 -53 20.5t-23 47.5z" />
<glyph unicode="&#xf2;" horiz-adv-x="1345" d="M96 535v4q0 153 74.5 282.5t208 206t295.5 76.5q122 0 229.5 -44.5t183 -120t119 -178.5t43.5 -218v-4q0 -114 -44 -217.5t-120 -180t-184 -121.5t-231 -45q-121 0 -228.5 44.5t-183 120t-119 178.5t-43.5 217zM344 539q0 -144 94 -245t236 -101q147 0 237 99t90 243v4 q0 145 -93.5 246.5t-237.5 101.5q-146 0 -236 -99.5t-90 -244.5v-4zM360 1456q0 29 48.5 54.5t99.5 25.5q61 0 98 -59l117 -181q18 -27 18 -45q0 -20 -17.5 -31.5t-45.5 -11.5q-45 0 -77 12t-66 44l-140 131q-35 31 -35 61z" />
<glyph unicode="&#xf3;" horiz-adv-x="1345" d="M96 535v4q0 153 74.5 282.5t208 206t295.5 76.5q122 0 229.5 -44.5t183 -120t119 -178.5t43.5 -218v-4q0 -114 -44 -217.5t-120 -180t-184 -121.5t-231 -45q-121 0 -228.5 44.5t-183 120t-119 178.5t-43.5 217zM344 539q0 -144 94 -245t236 -101q147 0 237 99t90 243v4 q0 145 -93.5 246.5t-237.5 101.5q-146 0 -236 -99.5t-90 -244.5v-4zM604 1251q0 19 17 45l116 181q37 59 99 59q50 0 98.5 -25.5t48.5 -54.5q0 -30 -35 -61l-137 -131q-35 -32 -67.5 -44t-77.5 -12q-27 0 -44.5 11.5t-17.5 31.5z" />
<glyph unicode="&#xf4;" horiz-adv-x="1345" d="M96 535v4q0 153 74.5 282.5t208 206t295.5 76.5q122 0 229.5 -44.5t183 -120t119 -178.5t43.5 -218v-4q0 -114 -44 -217.5t-120 -180t-184 -121.5t-231 -45q-121 0 -228.5 44.5t-183 120t-119 178.5t-43.5 217zM344 539q0 -144 94 -245t236 -101q147 0 237 99t90 243v4 q0 145 -93.5 246.5t-237.5 101.5q-146 0 -236 -99.5t-90 -244.5v-4zM356 1249q0 16 25 49l135 170q26 30 52.5 45t66.5 15h74q71 0 118 -60l136 -170q24 -32 24 -49q0 -20 -16.5 -30.5t-42.5 -10.5q-45 0 -78.5 12t-73.5 44l-106 92l-107 -92q-38 -32 -72 -44t-79 -12 q-24 0 -40 10.5t-16 30.5z" />
<glyph unicode="&#xf5;" horiz-adv-x="1345" d="M96 535v4q0 153 74.5 282.5t208 206t295.5 76.5q122 0 229.5 -44.5t183 -120t119 -178.5t43.5 -218v-4q0 -114 -44 -217.5t-120 -180t-184 -121.5t-231 -45q-121 0 -228.5 44.5t-183 120t-119 178.5t-43.5 217zM305 1262q0 19 8 47q34 94 82.5 140t126.5 46q61 0 162 -41 t133 -41q34 0 54 15t40 51q25 41 68 41q30 0 53 -20.5t23 -47.5q0 -19 -8 -47q-34 -94 -82.5 -140t-126.5 -46q-61 0 -162 40.5t-133 40.5q-34 0 -54 -15t-40 -50q-25 -41 -68 -41q-30 0 -53 20.5t-23 47.5zM344 539q0 -144 94 -245t236 -101q147 0 237 99t90 243v4 q0 145 -93.5 246.5t-237.5 101.5q-146 0 -236 -99.5t-90 -244.5v-4z" />
<glyph unicode="&#xf6;" horiz-adv-x="1345" d="M96 535v4q0 153 74.5 282.5t208 206t295.5 76.5q122 0 229.5 -44.5t183 -120t119 -178.5t43.5 -218v-4q0 -114 -44 -217.5t-120 -180t-184 -121.5t-231 -45q-121 0 -228.5 44.5t-183 120t-119 178.5t-43.5 217zM334 1333v15q0 55 39 91t96 36q56 0 94.5 -36t38.5 -91v-15 q0 -55 -38.5 -90t-94.5 -35q-58 0 -96.5 35t-38.5 90zM344 539q0 -144 94 -245t236 -101q147 0 237 99t90 243v4q0 145 -93.5 246.5t-237.5 101.5q-146 0 -236 -99.5t-90 -244.5v-4zM741 1333v15q0 55 39 91t97 36q56 0 94.5 -36t38.5 -91v-15q0 -55 -38.5 -90t-94.5 -35 q-58 0 -97 35t-39 90z" />
<glyph unicode="&#xf7;" horiz-adv-x="1298" d="M129 721q0 43 31.5 74.5t75.5 31.5h827q44 0 75 -31.5t31 -74.5t-31 -75t-75 -32h-827q-44 0 -75.5 32t-31.5 75zM508 289v10q0 57 41 97t100 40t100.5 -40t41.5 -97v-10q0 -57 -41.5 -96t-100.5 -39t-100 39t-41 96zM508 1143v10q0 56 41.5 95.5t99.5 39.5t100 -39.5 t42 -95.5v-10q0 -57 -41.5 -97t-100.5 -40t-100 40t-41 97z" />
<glyph unicode="&#xf8;" horiz-adv-x="1345" d="M96 535v4q0 153 74.5 282.5t208 206t295.5 76.5q186 0 332 -100l61 63q37 37 78 37q32 0 56 -21.5t24 -52.5q0 -39 -35 -78l-62 -61q121 -153 121 -348v-4q0 -114 -44 -217.5t-120 -180t-184 -121.5t-231 -45q-183 0 -332 99l-59 -62q-37 -37 -78 -37q-32 0 -56 22.5 t-24 53.5q0 41 35 76l59 61q-119 147 -119 347zM338 539q0 -99 45 -181l469 480q-80 55 -182 55q-148 0 -240 -101.5t-92 -248.5v-4zM492 240q79 -54 182 -54q149 0 241.5 101.5t92.5 247.5v4q0 100 -47 180z" />
<glyph unicode="&#xf9;" horiz-adv-x="1269" d="M143 393v576q0 52 36 88.5t87 36.5q52 0 88.5 -36t36.5 -89v-502q0 -126 60.5 -194t171.5 -68q109 0 176 71t67 195v498q0 53 36 89t89 36q51 0 88 -36.5t37 -88.5v-856q0 -51 -36.5 -87t-88.5 -36t-88.5 35.5t-36.5 87.5v55q-131 -191 -338 -191q-181 0 -283 112.5 t-102 303.5zM315 1456q0 29 48.5 54.5t99.5 25.5q61 0 98 -59l117 -181q18 -27 18 -45q0 -20 -17.5 -31.5t-45.5 -11.5q-45 0 -77.5 12t-66.5 44l-139 131q-35 31 -35 61z" />
<glyph unicode="&#xfa;" horiz-adv-x="1269" d="M143 393v576q0 52 36 88.5t87 36.5q52 0 88.5 -36t36.5 -89v-502q0 -126 60.5 -194t171.5 -68q109 0 176 71t67 195v498q0 53 36 89t89 36q51 0 88 -36.5t37 -88.5v-856q0 -51 -36.5 -87t-88.5 -36t-88.5 35.5t-36.5 87.5v55q-131 -191 -338 -191q-181 0 -283 112.5 t-102 303.5zM559 1251q0 21 16 45l117 181q37 59 99 59q50 0 98.5 -25.5t48.5 -54.5q0 -30 -35 -61l-137 -131q-35 -32 -67.5 -44t-77.5 -12q-27 0 -44.5 11.5t-17.5 31.5z" />
<glyph unicode="&#xfb;" horiz-adv-x="1269" d="M143 393v576q0 52 36 88.5t87 36.5q52 0 88.5 -36t36.5 -89v-502q0 -126 60.5 -194t171.5 -68q109 0 176 71t67 195v498q0 53 36 89t89 36q51 0 88 -36.5t37 -88.5v-856q0 -51 -36.5 -87t-88.5 -36t-88.5 35.5t-36.5 87.5v55q-131 -191 -338 -191q-181 0 -283 112.5 t-102 303.5zM311 1249q0 16 25 49l135 170q26 30 52.5 45t66.5 15h74q71 0 118 -60l136 -170q24 -32 24 -49q0 -20 -16.5 -30.5t-42.5 -10.5q-45 0 -78.5 12t-73.5 44l-106 92l-107 -92q-38 -32 -72 -44t-79 -12q-24 0 -40 10.5t-16 30.5z" />
<glyph unicode="&#xfc;" horiz-adv-x="1269" d="M143 393v576q0 52 36 88.5t87 36.5q52 0 88.5 -36t36.5 -89v-502q0 -126 60.5 -194t171.5 -68q109 0 176 71t67 195v498q0 53 36 89t89 36q51 0 88 -36.5t37 -88.5v-856q0 -51 -36.5 -87t-88.5 -36t-88.5 35.5t-36.5 87.5v55q-131 -191 -338 -191q-181 0 -283 112.5 t-102 303.5zM289 1333v15q0 55 39 91t96 36q56 0 94.5 -36t38.5 -91v-15q0 -55 -38.5 -90t-94.5 -35q-58 0 -96.5 35t-38.5 90zM696 1333v15q0 55 39 91t96 36q56 0 95 -36t39 -91v-15q0 -55 -39 -90t-95 -35q-58 0 -96.5 35t-38.5 90z" />
<glyph unicode="&#xfd;" d="M80 973q0 52 35 86.5t88 34.5q83 0 121 -95l290 -718l271 718q37 95 119 95q50 0 84 -34t34 -83q0 -29 -10 -59l-395 -949q-69 -166 -151.5 -234.5t-213.5 -68.5q-93 0 -172 31q-32 11 -55 36t-23 66q0 45 30 74t71 29q21 0 45 -8q54 -15 86 -15q55 0 88.5 25.5 t64.5 89.5l9 22l-402 897q-14 31 -14 60zM535 1251q0 21 16 45l117 181q37 59 98 59q50 0 98.5 -25.5t48.5 -54.5q0 -30 -34 -61l-138 -131q-35 -32 -67.5 -44t-77.5 -12q-27 0 -44 11.5t-17 31.5z" />
<glyph unicode="&#xfe;" horiz-adv-x="1374" d="M156 -215v1597q0 52 35 87.5t88 35.5t88.5 -35.5t35.5 -87.5v-481q144 203 369 203q96 0 185.5 -38t160.5 -107t113.5 -177t42.5 -239v-4q0 -130 -42.5 -238t-113 -178t-160 -108t-186.5 -38q-224 0 -369 191v-383q0 -52 -35.5 -87.5t-88.5 -35.5q-51 0 -87 35.5 t-36 87.5zM397 539q0 -151 93 -248.5t223 -97.5q131 0 220 95t89 251v4q0 153 -90 249.5t-219 96.5q-130 0 -223 -97.5t-93 -248.5v-4z" />
<glyph unicode="&#xff;" d="M80 973q0 52 35 86.5t88 34.5q83 0 121 -95l290 -718l271 718q37 95 119 95q50 0 84 -34t34 -83q0 -29 -10 -59l-395 -949q-69 -166 -151.5 -234.5t-213.5 -68.5q-93 0 -172 31q-32 11 -55 36t-23 66q0 45 30 74t71 29q21 0 45 -8q54 -15 86 -15q55 0 88.5 25.5 t64.5 89.5l9 22l-402 897q-14 31 -14 60zM264 1333v15q0 55 39 91t96 36q56 0 94.5 -36t38.5 -91v-15q0 -55 -38.5 -90t-94.5 -35q-58 0 -96.5 35t-38.5 90zM672 1333v15q0 55 39 91t96 36q56 0 94.5 -36t38.5 -91v-15q0 -55 -38.5 -90t-94.5 -35q-58 0 -96.5 35t-38.5 90z " />
<glyph unicode="&#x152;" horiz-adv-x="2248" d="M121 713v4q0 150 56 282t155 228t242 151.5t309 55.5h1138q47 0 81 -33.5t34 -79.5q0 -47 -34 -80t-81 -33h-663v-372h571q47 0 81 -34t34 -81q0 -46 -34 -78.5t-81 -32.5h-571v-385h674q47 0 80.5 -33t33.5 -79q0 -47 -33.5 -80t-80.5 -33h-1149q-166 0 -308.5 54.5 t-242 149.5t-155.5 226.5t-56 282.5zM385 717q0 -213 137.5 -350.5t360.5 -137.5h223v975h-223q-224 0 -361 -135t-137 -348v-4z" />
<glyph unicode="&#x153;" horiz-adv-x="2129" d="M96 535v4q0 114 44.5 218.5t120.5 180.5t182.5 121t224.5 45q135 0 248.5 -60t183.5 -163q69 104 178 163.5t240 59.5q99 0 184 -31.5t144.5 -84t101.5 -121.5t62 -144.5t20 -151.5q0 -52 -33.5 -85t-83.5 -33h-678q21 -130 105.5 -202.5t205.5 -72.5q141 0 256 94 q30 23 64 23q43 0 70.5 -28.5t27.5 -71.5q0 -46 -33 -76q-160 -144 -387 -144q-140 0 -256.5 60.5t-189.5 167.5q-72 -105 -188 -166.5t-253 -61.5q-153 0 -282 75.5t-204 204.5t-75 280zM344 539q0 -143 92.5 -244.5t231.5 -101.5q143 0 231 99t88 243v4q0 145 -92 246.5 t-231 101.5q-142 0 -231 -100.5t-89 -243.5v-4zM1233 616h557q-14 126 -85 205.5t-189 79.5q-114 0 -189.5 -78.5t-93.5 -206.5z" />
<glyph unicode="&#x178;" horiz-adv-x="1425" d="M66 1323q0 51 36.5 86t90.5 35q70 0 122 -76l400 -575l405 577q52 76 121 76q54 0 88.5 -35.5t34.5 -87.5q0 -41 -35 -90l-489 -670v-448q0 -53 -36.5 -89t-90.5 -36q-53 0 -89 36t-36 89v442l-494 678q-28 44 -28 88zM375 1667v14q0 55 39 91t96 36q56 0 94.5 -36 t38.5 -91v-14q0 -55 -38.5 -90t-94.5 -35q-58 0 -96.5 35t-38.5 90zM782 1667v14q0 55 39 91t97 36q56 0 94.5 -36t38.5 -91v-14q0 -55 -38.5 -90t-94.5 -35q-58 0 -97 35t-39 90z" />
<glyph unicode="&#x2c6;" horiz-adv-x="1024" d="M197 1249q0 17 24 49l135 170q26 30 52.5 45t66.5 15h74q72 0 119 -60l135 -170q24 -32 24 -49q0 -20 -16.5 -30.5t-42.5 -10.5q-45 0 -78.5 12t-73.5 44l-106 92l-107 -92q-38 -32 -72 -44t-79 -12q-24 0 -39.5 10.5t-15.5 30.5z" />
<glyph unicode="&#x2dc;" horiz-adv-x="1024" d="M137 1262q0 19 8 47q34 94 82.5 140t126.5 46q61 0 162 -41t133 -41q34 0 54 15t40 51q25 41 68 41q30 0 53 -20.5t23 -47.5q0 -19 -8 -47q-34 -94 -82.5 -140t-126.5 -46q-61 0 -162 40.5t-133 40.5q-34 0 -54 -15t-40 -50q-25 -41 -68 -41q-30 0 -53 20.5t-23 47.5z " />
<glyph unicode="&#x2000;" horiz-adv-x="945" />
<glyph unicode="&#x2001;" horiz-adv-x="1890" />
<glyph unicode="&#x2002;" horiz-adv-x="945" />
<glyph unicode="&#x2003;" horiz-adv-x="1890" />
<glyph unicode="&#x2004;" horiz-adv-x="630" />
<glyph unicode="&#x2005;" horiz-adv-x="472" />
<glyph unicode="&#x2006;" horiz-adv-x="315" />
<glyph unicode="&#x2007;" horiz-adv-x="315" />
<glyph unicode="&#x2008;" horiz-adv-x="236" />
<glyph unicode="&#x2009;" horiz-adv-x="378" />
<glyph unicode="&#x200a;" horiz-adv-x="105" />
<glyph unicode="&#x2010;" horiz-adv-x="835" d="M104 627q0 51 35.5 87t85.5 36h385q50 0 85.5 -36t35.5 -87q0 -49 -35.5 -85t-85.5 -36h-385q-49 0 -85 36t-36 85z" />
<glyph unicode="&#x2011;" horiz-adv-x="835" d="M104 627q0 51 35.5 87t85.5 36h385q50 0 85.5 -36t35.5 -87q0 -49 -35.5 -85t-85.5 -36h-385q-49 0 -85 36t-36 85z" />
<glyph unicode="&#x2012;" horiz-adv-x="835" d="M104 627q0 51 35.5 87t85.5 36h385q50 0 85.5 -36t35.5 -87q0 -49 -35.5 -85t-85.5 -36h-385q-49 0 -85 36t-36 85z" />
<glyph unicode="&#x2013;" horiz-adv-x="1081" d="M104 627q0 49 34.5 83.5t82.5 34.5h639q48 0 82.5 -34.5t34.5 -83.5q0 -47 -35 -82t-82 -35h-639q-47 0 -82 35t-35 82z" />
<glyph unicode="&#x2014;" horiz-adv-x="1839" d="M104 627q0 49 34.5 83.5t82.5 34.5h1397q48 0 82.5 -34.5t34.5 -83.5q0 -47 -35 -82t-82 -35h-1397q-47 0 -82 35t-35 82z" />
<glyph unicode="&#x2018;" horiz-adv-x="550" d="M123 1034v21q0 202 102 299q39 40 93 64t100 24q31 0 47 -16t16 -42q0 -41 -49 -55q-145 -45 -139 -182q48 -13 82.5 -50t34.5 -89v-17q0 -59 -39 -98t-101 -39q-68 0 -107.5 48.5t-39.5 131.5z" />
<glyph unicode="&#x2019;" horiz-adv-x="550" d="M72 913q0 42 47 56q145 45 139 184q-48 11 -82.5 48t-34.5 89v17q0 59 39 98t101 39q68 0 107.5 -48.5t39.5 -131.5v-21q0 -199 -100 -299q-40 -40 -94.5 -64t-98.5 -24q-31 0 -47 15.5t-16 41.5z" />
<glyph unicode="&#x201a;" horiz-adv-x="550" d="M61 -240q0 21 13.5 36t34.5 20q145 48 139 184q-48 13 -82.5 50t-34.5 89v17q0 59 38.5 98t100.5 39q69 0 108.5 -48.5t39.5 -131.5v-23q0 -193 -101 -299q-41 -39 -95 -63.5t-97 -24.5q-31 0 -47.5 16t-16.5 41z" />
<glyph unicode="&#x201c;" horiz-adv-x="1026" d="M123 1034v21q0 202 102 299q39 40 93 64t100 24q31 0 47 -16t16 -42q0 -41 -49 -55q-145 -45 -139 -182q48 -13 82.5 -50t34.5 -89v-17q0 -59 -39 -98t-101 -39q-68 0 -107.5 48.5t-39.5 131.5zM598 1034v21q0 199 100 299q40 40 94.5 64t98.5 24q31 0 48 -16t17 -42 q0 -41 -49 -55q-145 -45 -139 -182q48 -13 82.5 -50t34.5 -89v-17q0 -59 -39 -98t-101 -39q-68 0 -107.5 48.5t-39.5 131.5z" />
<glyph unicode="&#x201d;" horiz-adv-x="1026" d="M72 913q0 42 47 56q145 45 139 184q-48 11 -82.5 48t-34.5 89v17q0 59 39 98t101 39q68 0 107.5 -48.5t39.5 -131.5v-21q0 -199 -100 -299q-40 -40 -94.5 -64t-98.5 -24q-31 0 -47 15.5t-16 41.5zM545 913q0 42 49 56q145 45 139 184q-48 11 -82.5 48t-34.5 89v17 q0 59 39 98t101 39q68 0 107.5 -48.5t39.5 -131.5v-21q0 -202 -102 -299q-39 -40 -93 -64t-100 -24q-31 0 -47 15.5t-16 41.5z" />
<glyph unicode="&#x201e;" horiz-adv-x="1026" d="M61 -240q0 21 13.5 36t34.5 20q145 48 139 184q-48 13 -82.5 50t-34.5 89v17q0 59 38.5 98t100.5 39q69 0 108.5 -48.5t39.5 -131.5v-23q0 -193 -101 -299q-41 -39 -95 -63.5t-97 -24.5q-31 0 -47.5 16t-16.5 41zM535 -240q0 21 13.5 36t35.5 20q145 48 139 184 q-48 13 -82.5 50t-34.5 89v17q0 59 38.5 98t100.5 39q67 0 107.5 -49t40.5 -131v-23q0 -197 -102 -299q-39 -39 -93.5 -63.5t-99.5 -24.5q-31 0 -47 16t-16 41z" />
<glyph unicode="&#x2022;" horiz-adv-x="1005" d="M213 719v4q0 119 86 204t205 85q118 0 203.5 -85t85.5 -204v-4q0 -119 -85 -203t-204 -84q-120 0 -205.5 83.5t-85.5 203.5z" />
<glyph unicode="&#x2026;" horiz-adv-x="1622" d="M131 131v21q0 61 39.5 101t101.5 40t102 -40t40 -101v-21q0 -61 -40 -101t-102 -40t-101.5 40t-39.5 101zM670 131v21q0 61 39.5 101t101.5 40t101.5 -40t39.5 -101v-21q0 -61 -39.5 -101t-101.5 -40t-101.5 40t-39.5 101zM1208 131v21q0 61 40 101t102 40t101.5 -40 t39.5 -101v-21q0 -61 -39.5 -101t-101.5 -40t-102 40t-40 101z" />
<glyph unicode="&#x202f;" horiz-adv-x="378" />
<glyph unicode="&#x2039;" horiz-adv-x="724" d="M106 541q0 34 29 71l258 334q39 49 94 49q41 0 70 -30t29 -72q0 -35 -27 -70l-217 -280l221 -287q25 -31 25 -68q0 -43 -30 -72.5t-73 -29.5q-55 0 -86 43l-264 340q-29 40 -29 72z" />
<glyph unicode="&#x203a;" horiz-adv-x="724" d="M137 893q2 43 31.5 72.5t71.5 29.5q54 0 86 -45l264 -338q31 -43 31 -73q0 -29 -31 -72l-258 -332q-34 -49 -92 -49q-42 0 -71.5 30t-29.5 72q0 37 29 70l215 279l-219 286q-27 35 -27 70z" />
<glyph unicode="&#x205f;" horiz-adv-x="472" />
<glyph unicode="&#x20ac;" horiz-adv-x="1474" d="M96 549q0 36 26 62t62 26h80q-2 25 -2 78q0 63 4 94h-82q-37 0 -62.5 25.5t-25.5 60.5q0 37 25.5 62.5t62.5 25.5h115q62 214 216 344.5t366 130.5q153 0 260 -54t194 -155q33 -33 33 -84q0 -49 -35.5 -83.5t-85.5 -34.5q-56 0 -88 40q-62 74 -128 110t-157 36 q-108 0 -189.5 -66t-125.5 -184h365q35 0 60.5 -25.5t25.5 -62.5q0 -35 -25.5 -60.5t-60.5 -25.5h-404q-4 -29 -4 -90q0 -55 2 -82h406q35 0 60.5 -26.5t25.5 -61.5q0 -37 -25.5 -62.5t-60.5 -25.5h-369q43 -124 129.5 -192t206.5 -68q87 0 152 38.5t128 116.5q33 41 89 41 q46 0 79 -32t33 -78q0 -44 -24 -72q-90 -116 -199.5 -178t-259.5 -62q-223 0 -378.5 131.5t-215.5 354.5h-111q-37 0 -62.5 25.5t-25.5 62.5z" />
<glyph unicode="&#x2122;" horiz-adv-x="1413" d="M43 1378q0 23 15.5 39.5t37.5 16.5h424q22 0 37.5 -16.5t15.5 -39.5q0 -22 -15.5 -38.5t-37.5 -16.5h-151v-471q0 -25 -18 -42t-44 -17q-25 0 -42 17t-17 42v471h-152q-22 0 -37.5 16.5t-15.5 38.5zM698 850v530q0 25 17.5 42.5t42.5 17.5h14q36 0 55 -31l189 -303 l192 303q19 31 54 31h14q23 0 40 -17.5t17 -42.5v-530q0 -25 -17 -41t-42 -16q-24 0 -40.5 16.5t-16.5 40.5v369l-150 -230q-21 -31 -51 -31q-29 0 -51 31l-150 228v-367q0 -24 -16.5 -40.5t-40.5 -16.5q-25 0 -42.5 16.5t-17.5 40.5z" />
<glyph unicode="&#x25fc;" horiz-adv-x="1095" d="M0 0v1096h1096v-1096h-1096z" />
<glyph unicode="&#xfb01;" horiz-adv-x="1355" d="M63 971q0 43 31 73.5t74 30.5h43v80q0 178 88 266q86 86 244 86q67 0 125 -10q35 -5 60.5 -33.5t25.5 -68.5q0 -43 -31 -73.5t-74 -29.5q-28 4 -51 4q-143 0 -143 -163v-60h192q44 0 74.5 -29.5t30.5 -72.5t-31 -73t-74 -30h-188v-755q0 -51 -36.5 -87t-88.5 -36 q-51 0 -87 36t-36 87v755h-43q-43 0 -74 30t-31 73zM922 1360v12q0 55 40 88t101 33t101 -33t40 -88v-12q0 -55 -40 -89t-101 -34t-101 34t-40 89zM940 113v856q0 53 35.5 89t87.5 36q53 0 89 -36t36 -89v-856q0 -52 -36 -87.5t-89 -35.5q-51 0 -87 35.5t-36 87.5z" />
<glyph unicode="&#xfb02;" horiz-adv-x="1355" d="M63 971q0 43 31 73.5t74 30.5h43v80q0 178 88 266q86 86 244 86q67 0 125 -10q35 -5 60.5 -33.5t25.5 -68.5q0 -43 -31 -73.5t-74 -29.5q-28 4 -51 4q-143 0 -143 -163v-60h192q44 0 74.5 -29.5t30.5 -72.5t-31 -73t-74 -30h-188v-755q0 -51 -36.5 -87t-88.5 -36 q-51 0 -87 36t-36 87v755h-43q-43 0 -74 30t-31 73zM940 113v1269q0 51 35.5 87t87.5 36t88.5 -36t36.5 -87v-1269q0 -52 -36 -87.5t-89 -35.5q-51 0 -87 35.5t-36 87.5z" />
<glyph unicode="&#xfb03;" horiz-adv-x="2125" d="M63 971q0 43 31 73.5t74 30.5h43v80q0 178 88 266q86 86 244 86q67 0 125 -10q35 -5 60.5 -33.5t25.5 -68.5q0 -43 -31 -73.5t-74 -29.5q-28 4 -51 4q-143 0 -143 -163v-60h192q44 0 74.5 -29.5t30.5 -72.5t-31 -73t-74 -30h-188v-755q0 -51 -36.5 -87t-88.5 -36 q-51 0 -87 36t-36 87v755h-43q-43 0 -74 30t-31 73zM834 971q0 43 30.5 73.5t73.5 30.5h43v80q0 178 88 266q86 86 244 86q67 0 125 -10q35 -5 60.5 -33.5t25.5 -68.5q0 -43 -31 -73.5t-74 -29.5q-28 4 -51 4q-143 0 -143 -163v-60h192q44 0 74.5 -29.5t30.5 -72.5t-31 -73 t-74 -30h-188v-755q0 -51 -36.5 -87t-88.5 -36q-51 0 -87 36t-36 87v755h-43q-43 0 -73.5 30t-30.5 73zM1692 1360v12q0 55 40 88t101 33t101 -33t40 -88v-12q0 -55 -40 -89t-101 -34t-101 34t-40 89zM1710 113v856q0 53 35.5 89t87.5 36q53 0 89 -36t36 -89v-856 q0 -52 -36 -87.5t-89 -35.5q-51 0 -87 35.5t-36 87.5z" />
<glyph unicode="&#xfb04;" horiz-adv-x="2125" d="M63 971q0 43 31 73.5t74 30.5h43v80q0 178 88 266q86 86 244 86q67 0 125 -10q35 -5 60.5 -33.5t25.5 -68.5q0 -43 -31 -73.5t-74 -29.5q-28 4 -51 4q-143 0 -143 -163v-60h192q44 0 74.5 -29.5t30.5 -72.5t-31 -73t-74 -30h-188v-755q0 -51 -36.5 -87t-88.5 -36 q-51 0 -87 36t-36 87v755h-43q-43 0 -74 30t-31 73zM834 971q0 43 30.5 73.5t73.5 30.5h43v80q0 178 88 266q86 86 244 86q67 0 125 -10q35 -5 60.5 -33.5t25.5 -68.5q0 -43 -31 -73.5t-74 -29.5q-28 4 -51 4q-143 0 -143 -163v-60h192q44 0 74.5 -29.5t30.5 -72.5t-31 -73 t-74 -30h-188v-755q0 -51 -36.5 -87t-88.5 -36q-51 0 -87 36t-36 87v755h-43q-43 0 -73.5 30t-30.5 73zM1710 113v1269q0 51 35.5 87t87.5 36t88.5 -36t36.5 -87v-1269q0 -52 -36 -87.5t-89 -35.5q-51 0 -87 35.5t-36 87.5z" />
</font>
</defs>
</svg>
