<?xml version="1.0" standalone="no"?>
<!DOCTYPE svg PUBLIC "-//W3C//DTD SVG 1.1//EN" "http://www.w3.org/Graphics/SVG/1.1/DTD/svg11.dtd" >
<svg xmlns="http://www.w3.org/2000/svg" xmlns:xlink="http://www.w3.org/1999/xlink" version="1.1">
<metadata></metadata>
<defs>
<font id="gotham_roundedlight_italic" horiz-adv-x="1024" >
<font-face units-per-em="2048" ascent="1638" descent="-410" />
<missing-glyph horiz-adv-x="614" />
<glyph horiz-adv-x="0" />
<glyph horiz-adv-x="682" />
<glyph unicode=" "  horiz-adv-x="614" />
<glyph unicode="&#x09;" horiz-adv-x="614" />
<glyph unicode="&#xa0;" horiz-adv-x="614" />
<glyph unicode="!" horiz-adv-x="514" d="M63 53l21 76q16 53 74 53q29 0 46 -18.5t11 -44.5l-20 -78q-12 -49 -74 -49q-30 0 -47 17.5t-11 43.5zM197 410l233 985q9 45 59 45h17q26 0 38 -15.5t5 -42.5l-297 -987q-9 -26 -31 -26q-33 0 -24 41z" />
<glyph unicode="&#x22;" horiz-adv-x="839" d="M219 946l164 449q15 43 68 43h12q30 0 40.5 -19t-5.5 -51l-222 -436q-14 -27 -34 -27q-36 0 -23 41zM588 946l164 449q15 43 67 43h12q30 0 40.5 -19t-5.5 -51l-221 -436q-13 -27 -35 -27q-35 0 -22 41z" />
<glyph unicode="#" horiz-adv-x="1388" d="M76 430q0 20 14.5 34.5t34.5 14.5h227l170 484h-219q-20 0 -34.5 13.5t-14.5 33.5t14.5 34.5t34.5 14.5h252l119 340q15 43 55 43q26 0 36.5 -16t2.5 -40l-115 -327h424l119 340q15 43 55 43q26 0 36.5 -16t2.5 -40l-114 -327h194q20 0 34.5 -13.5t14.5 -33.5 t-14.5 -34.5t-34.5 -14.5h-227l-170 -484h219q20 0 34.5 -13.5t14.5 -33.5t-14.5 -34.5t-34.5 -14.5h-252l-121 -348q-15 -43 -55 -43q-26 0 -36.5 15.5t-2.5 39.5l117 336h-424l-121 -348q-15 -43 -55 -43q-26 0 -36.5 15.5t-2.5 39.5l116 336h-194q-20 0 -34.5 13.5 t-14.5 33.5zM453 479h421l170 484h-423z" />
<glyph unicode="$" horiz-adv-x="1265" d="M6 264q0 22 14.5 35.5t36.5 13.5q21 0 39 -18q151 -157 385 -191l158 590q-200 75 -283.5 154t-83.5 203q0 164 136.5 273.5t339.5 109.5q32 0 90 -4l22 83q12 48 55 48q24 0 36.5 -17t6.5 -41l-24 -88q187 -38 323 -155q23 -20 23 -46q0 -22 -13.5 -36.5t-35.5 -14.5 q-21 0 -41 17q-116 105 -291 143l-149 -557q188 -68 271 -151.5t83 -208.5q0 -176 -145.5 -291t-376.5 -115h-39l-43 -164q-12 -47 -56 -47q-24 0 -36.5 16.5t-6.5 40.5l45 164q-251 41 -417 207q-23 23 -23 47zM381 1061q0 -90 64.5 -147.5t220.5 -116.5l145 536 q-178 24 -304 -58t-126 -214zM569 96q185 -6 305.5 78t120.5 221q0 87 -61 149.5t-211 121.5z" />
<glyph unicode="%" horiz-adv-x="1681" d="M184 33q0 20 23 43l1300 1335q33 33 56 33q18 0 29.5 -11.5t11.5 -29.5q0 -20 -23 -43l-1300 -1335q-33 -33 -56 -33q-18 0 -29.5 11.5t-11.5 29.5zM190 1001q0 114 51.5 217t143 167.5t197.5 64.5q123 0 201.5 -84.5t78.5 -208.5q0 -114 -51.5 -217t-142.5 -167 t-197 -64q-123 0 -202 84.5t-79 207.5zM291 1012q0 -98 49.5 -156.5t138.5 -58.5q76 0 142.5 52.5t103.5 133t37 164.5q0 98 -50 156.5t-139 58.5q-76 0 -142 -52.5t-103 -133t-37 -164.5zM924 279q0 114 51.5 217t142.5 167t197 64q123 0 201.5 -84.5t78.5 -208.5 q0 -114 -51.5 -217t-142.5 -167t-197 -64q-123 0 -201.5 84.5t-78.5 208.5zM1024 289q0 -98 49.5 -156.5t138.5 -58.5q76 0 142.5 52.5t103.5 133t37 164.5q0 98 -49.5 156.5t-138.5 58.5q-76 0 -142.5 -52.5t-103.5 -133t-37 -164.5z" />
<glyph unicode="&#x26;" horiz-adv-x="1413" d="M63 338q0 173 127.5 299t374.5 188q-96 155 -96 273q0 153 111 256.5t266 103.5q152 0 244 -81.5t92 -215.5q0 -61 -23 -113.5t-74.5 -104t-143.5 -96t-222 -79.5l291 -412q106 119 213 299q23 39 51 39q18 0 30.5 -11.5t12.5 -31.5q0 -19 -12 -37q-126 -202 -238 -327 l156 -221q16 -21 16 -41t-12.5 -32.5t-34.5 -12.5q-28 0 -49 32l-146 207q-125 -124 -246 -181.5t-278 -57.5q-176 0 -293 96.5t-117 261.5zM172 350q0 -127 85 -201.5t228 -74.5q239 0 457 215l-326 461q-223 -53 -333.5 -159.5t-110.5 -240.5zM573 1100q0 -63 22 -122 t73 -136q409 106 409 315q0 94 -64 152.5t-171 58.5q-109 0 -189 -78.5t-80 -189.5z" />
<glyph unicode="'" horiz-adv-x="471" d="M219 946l164 449q15 43 68 43h12q30 0 40.5 -19t-5.5 -51l-222 -436q-14 -27 -34 -27q-36 0 -23 41z" />
<glyph unicode="(" horiz-adv-x="880" d="M203 446q0 312 198.5 581t573.5 429q20 8 33 8q17 0 29 -11t12 -28q0 -29 -29 -41q-343 -150 -527 -397t-184 -538q0 -89 16.5 -171.5t41.5 -146.5t65 -128t77 -110.5t87 -99.5q16 -19 16 -35q0 -17 -12 -28t-29 -11q-19 0 -36 17q-73 69 -128 138.5t-103.5 157 t-74.5 192.5t-26 222z" />
<glyph unicode=")" horiz-adv-x="880" d="M-131 -242q0 29 29 41q342 150 526 397t184 539q0 110 -22.5 207.5t-66.5 178.5t-89 141.5t-108 128.5q-17 20 -17 34q0 17 12 28t29 11q21 0 37 -16q73 -69 128 -138.5t103.5 -157.5t74.5 -193t26 -222q0 -312 -198.5 -580.5t-573.5 -428.5q-23 -9 -33 -9q-17 0 -29 11 t-12 28z" />
<glyph unicode="*" horiz-adv-x="880" d="M276 1059q0 39 41 45l230 43l-176 147q-21 18 -21 39q0 18 10 29.5t27 11.5q24 0 39 -18l152 -174l40 213q10 43 46 43q23 0 32.5 -16t1.5 -40l-73 -213l209 74q15 6 30 6t25 -12.5t10 -28.5q0 -36 -39 -43l-227 -43l172 -145q24 -21 24 -41q0 -18 -12 -29.5t-26 -11.5 q-21 0 -39 20l-150 172l-41 -217q-5 -36 -41 -36q-23 0 -34.5 15.5t-4.5 37.5l74 213l-211 -74q-15 -6 -29 -6q-16 0 -27.5 11t-11.5 28z" />
<glyph unicode="+" horiz-adv-x="1269" d="M184 721q0 20 14.5 34.5t34.5 14.5h418l107 401q13 48 57 48q25 0 37 -17.5t6 -40.5l-104 -391h391q20 0 34.5 -13.5t14.5 -33.5t-14.5 -35.5t-34.5 -15.5h-418l-109 -400q-14 -49 -57 -49q-25 0 -37 18.5t-6 41.5l107 389h-392q-20 0 -34.5 14.5t-14.5 34.5z" />
<glyph unicode="," horiz-adv-x="473" d="M-82 -188q0 17 21 26q65 28 99 65.5t46 96.5q-20 2 -33 18t-6 43l18 68q16 53 74 53q30 0 47.5 -20t10.5 -47l-25 -92q-28 -104 -82 -158q-49 -49 -131 -76q-17 -6 -28 1.5t-11 21.5z" />
<glyph unicode="-" horiz-adv-x="837" d="M158 608q0 23 17 40.5t40 17.5h453q23 0 40 -17.5t17 -40.5t-17 -40t-40 -17h-453q-23 0 -40 17t-17 40z" />
<glyph unicode="." horiz-adv-x="473" d="M43 55l20 74q16 53 74 53q29 0 46.5 -18.5t11.5 -44.5l-21 -74q-16 -53 -74 -53q-29 0 -46 18.5t-11 44.5z" />
<glyph unicode="/" d="M-211 -231q0 15 21 43l1392 1802q24 31 49 31q18 0 29.5 -11.5t11.5 -29.5q0 -16 -20 -43l-1393 -1803q-23 -30 -49 -30q-18 0 -29.5 11.5t-11.5 29.5z" />
<glyph unicode="0" horiz-adv-x="1452" d="M168 512q0 174 56.5 344.5t152.5 303.5t235 215.5t293 82.5q229 0 355 -149t126 -387q0 -174 -56.5 -345t-152.5 -304t-235 -215.5t-293 -82.5q-153 0 -263.5 71t-164 190.5t-53.5 275.5zM279 512q0 -192 98 -316t278 -124q122 0 238 74t199 193t133.5 273.5t50.5 309.5 q0 192 -98.5 316t-278.5 124q-98 0 -193 -47.5t-171 -131t-134 -190.5t-90 -232t-32 -249z" />
<glyph unicode="1" horiz-adv-x="684" d="M205 53l342 1274l-244 -78q-18 -6 -33 -6q-18 0 -29.5 13t-11.5 32q0 35 37 47l295 99q40 14 70 14h2q52 0 37 -57l-363 -1352q-12 -47 -57 -47q-24 0 -38 16.5t-7 44.5z" />
<glyph unicode="2" horiz-adv-x="1204" d="M-35 43q0 26 25 45l846 657q131 102 191 185.5t60 179.5q0 109 -82 178.5t-225 69.5q-197 0 -381 -176q-27 -23 -47 -23t-33.5 12.5t-13.5 32.5q0 24 23 47q108 100 213 151.5t243 51.5q183 0 298.5 -95t115.5 -247q0 -82 -38 -158t-98.5 -138t-160.5 -140l-741 -574h770 q22 0 36.5 -14.5t14.5 -36.5t-14.5 -36.5t-36.5 -14.5h-914q-23 0 -37 11t-14 32z" />
<glyph unicode="3" horiz-adv-x="1241" d="M31 256q0 21 14 35t35 14q26 0 45 -31q127 -202 393 -202q190 0 315 101.5t125 258.5q0 135 -107 204t-294 69h-31q-49 0 -49 36q0 19 19 35l618 557h-708q-22 0 -37 14t-15 35q0 22 15 37t37 15h841q43 0 43 -37q0 -27 -26 -49l-617 -557q117 -5 211 -45t153.5 -119.5 t59.5 -186.5q0 -133 -77 -240.5t-204.5 -166t-277.5 -58.5q-164 0 -282.5 62.5t-186.5 175.5q-12 21 -12 43z" />
<glyph unicode="4" horiz-adv-x="1320" d="M45 391q0 24 29 53l1052 979q32 29 66 29q26 0 37.5 -18t3.5 -43l-254 -949h180q19 0 33 -12.5t14 -32.5t-14 -33.5t-33 -13.5h-205l-84 -311q-12 -47 -57 -47q-23 0 -36.5 16.5t-6.5 44.5l80 297h-748q-57 0 -57 41zM203 442h671l224 832z" />
<glyph unicode="5" horiz-adv-x="1230" d="M45 236q0 19 14 33t35 14q29 0 49 -27q139 -188 379 -188q102 0 190 33.5t147 89t92.5 128t33.5 150.5q0 144 -96.5 225.5t-247.5 81.5q-149 0 -297 -71q-41 -18 -70 2q-32 22 -16 75l197 602q16 50 59 50h672q22 0 36.5 -15t14.5 -37t-14.5 -36.5t-36.5 -14.5h-649 l-177 -526q46 26 132 46.5t149 20.5q208 0 331.5 -107.5t123.5 -291.5q0 -80 -26.5 -154.5t-77.5 -136.5t-121 -108.5t-161.5 -72.5t-193.5 -26q-151 0 -258 53.5t-190 153.5q-23 26 -23 54z" />
<glyph unicode="6" horiz-adv-x="1310" d="M170 502q0 229 79 425.5t208 325.5q205 205 458 205q228 0 385 -153q23 -23 23 -48q0 -22 -14.5 -36.5t-34.5 -14.5q-22 0 -41 19q-140 137 -324 137q-202 0 -370 -168q-100 -100 -170 -248.5t-80 -296.5q71 106 185 174t261 68q106 0 194 -34.5t145 -92.5t88.5 -133 t31.5 -158q0 -99 -41.5 -190t-112.5 -159t-173.5 -108.5t-217.5 -40.5q-102 0 -190.5 35t-149.5 96q-139 139 -139 396zM291 412q0 -148 94 -242q100 -100 270 -100q122 0 221 56t153 148t54 199q0 59 -21.5 114.5t-63.5 102t-111.5 75t-157.5 28.5q-96 0 -179.5 -33 t-139 -86.5t-87.5 -122t-32 -139.5z" />
<glyph unicode="7" horiz-adv-x="1183" d="M203 33q0 20 20 49l905 1249h-766q-22 0 -36.5 14.5t-14.5 36.5t14.5 37t36.5 15h871q43 0 43 -37q0 -19 -25 -54l-944 -1314q-29 -37 -59 -37q-45 0 -45 41z" />
<glyph unicode="8" horiz-adv-x="1312" d="M82 354q0 166 122.5 271.5t315.5 134.5q-95 34 -157 114.5t-62 190.5q0 166 147.5 277.5t362.5 111.5q207 0 341 -103t134 -264q0 -144 -106 -243.5t-265 -128.5q104 -37 178 -123t74 -201q0 -118 -74 -212.5t-202.5 -146.5t-286.5 -52q-231 0 -376.5 108.5t-145.5 265.5 zM193 367q0 -129 114 -210t303 -81q201 0 324 89t123 230q0 122 -114 208.5t-300 86.5q-204 0 -327 -94.5t-123 -228.5zM412 1057q0 -120 99.5 -199.5t256.5 -79.5q191 0 299.5 90.5t108.5 212.5t-102 199.5t-263 77.5q-179 0 -289 -85.5t-110 -215.5z" />
<glyph unicode="9" horiz-adv-x="1310" d="M78 186q0 22 14.5 37t34.5 15q22 0 41 -19q143 -149 336 -149q200 0 368 168q101 99 169.5 244t80.5 294q-33 -49 -73.5 -90.5t-95.5 -79.5t-127.5 -60t-153.5 -22q-106 0 -194 35t-145 94.5t-88 136t-30 160.5q1 100 43 192.5t113.5 161.5t174.5 110.5t218 41.5 q102 0 189.5 -35t148.5 -96q139 -139 139 -395q0 -229 -79 -426t-208 -326q-205 -205 -456 -205q-225 0 -398 166q-22 22 -22 47zM326 950q-1 -61 20 -118t63 -104.5t114 -76t163 -28.5q92 0 174.5 34t138.5 90t88.5 128.5t32.5 148.5q0 142 -94 236q-102 102 -270 102 q-122 0 -221 -57.5t-153.5 -151.5t-55.5 -203z" />
<glyph unicode=":" horiz-adv-x="493" d="M53 55l21 74q16 53 73 53q29 0 46.5 -18.5t11.5 -44.5l-21 -74q-16 -53 -73 -53q-29 0 -46.5 18.5t-11.5 44.5zM287 926l20 73q16 54 74 54q29 0 46 -19t11 -45l-20 -74q-16 -53 -74 -53q-29 0 -46 19t-11 45z" />
<glyph unicode=";" horiz-adv-x="493" d="M-72 -188q0 17 21 26q65 28 99 65.5t46 96.5q-20 2 -33 18t-6 43l19 68q16 53 73 53q30 0 47.5 -20t10.5 -47l-25 -92q-28 -104 -82 -158q-49 -49 -131 -76q-17 -6 -28 1.5t-11 21.5zM287 926l20 73q16 54 74 54q29 0 46 -19t11 -45l-20 -74q-16 -53 -74 -53 q-29 0 -46 19t-11 45z" />
<glyph unicode="&#x3c;" horiz-adv-x="1269" d="M172 709v2q0 45 55 67l953 434q26 13 47 13q19 0 30 -13.5t11 -31.5q0 -35 -39 -52l-924 -415l680 -408q31 -17 31 -47q0 -20 -13.5 -34.5t-33.5 -14.5q-19 0 -39 12l-719 432q-39 23 -39 56z" />
<glyph unicode="=" horiz-adv-x="1269" d="M152 489q0 22 15.5 38t37.5 16h839q22 0 38 -16t16 -38q0 -21 -16 -36t-38 -15h-839q-22 0 -37.5 14.5t-15.5 36.5zM274 950q0 22 16 38t38 16h839q22 0 38 -16t16 -38q0 -21 -16 -36t-38 -15h-839q-22 0 -38 15t-16 36z" />
<glyph unicode="&#x3e;" horiz-adv-x="1269" d="M106 262q0 34 39 51l924 416l-680 408q-31 17 -31 47q0 20 14 34.5t34 14.5q18 0 38 -12l719 -433q39 -23 39 -55v-2q0 -45 -55 -67l-952 -435q-24 -12 -48 -12q-19 0 -30 13.5t-11 31.5z" />
<glyph unicode="?" horiz-adv-x="1093" d="M205 1223q0 21 16 37q200 192 461 192q188 0 300 -100t112 -258q0 -99 -43.5 -181t-119.5 -138t-172 -92t-208 -52l-80 -234q-10 -30 -35 -30h-2q-16 0 -25.5 12t-5.5 33l50 258q6 44 49 49q218 23 350.5 120t132.5 253q0 125 -88 194.5t-223 69.5q-202 0 -379 -158 q-24 -20 -43 -20q-20 0 -33.5 13t-13.5 32zM276 53l21 76q16 53 74 53q29 0 46 -18.5t11 -44.5l-20 -78q-12 -49 -74 -49q-30 0 -47 17.5t-11 43.5z" />
<glyph unicode="@" horiz-adv-x="2007" d="M135 473q0 130 36.5 256t101.5 234t158 200t203 157t240.5 101.5t266.5 36.5q186 0 338.5 -56t253 -154t155 -230t54.5 -283q0 -112 -26.5 -209.5t-69.5 -165t-98.5 -116t-113.5 -71.5t-114 -23q-107 0 -170.5 54t-77.5 150q-164 -209 -381 -209q-137 0 -229.5 93 t-92.5 247q0 109 43 210.5t112.5 173.5t160 115.5t182.5 43.5q122 0 201.5 -62.5t113.5 -158.5l52 168q14 43 51 43q27 0 40.5 -20t4.5 -50l-144 -463q-34 -110 4 -185t140 -75q54 0 111.5 31.5t109.5 91t85.5 161t33.5 226.5q0 110 -31.5 209.5t-93.5 181t-149 141.5 t-203.5 93t-251.5 33q-151 0 -293.5 -48t-257 -134.5t-201.5 -200.5t-134.5 -253t-47.5 -284q0 -332 215.5 -534.5t572.5 -202.5q220 0 400 82q12 6 24 6q14 0 22.5 -10t8.5 -23q0 -21 -27 -33q-193 -88 -428 -88q-194 0 -354.5 58t-271.5 162.5t-172.5 254t-61.5 328.5z M684 489q0 -116 63 -181.5t164 -65.5q102 0 200 60.5t160 159.5t62 204q0 117 -71 191.5t-191 74.5q-159 0 -273 -131t-114 -312z" />
<glyph unicode="A" horiz-adv-x="1517" d="M-31 39q0 18 13 31l968 1327q38 51 80 51h4q53 0 64 -51l256 -1323q4 -16 4 -33q0 -20 -14.5 -34.5t-36.5 -14.5q-21 0 -36.5 13.5t-19.5 37.5l-65 358h-846l-268 -370q-31 -39 -58 -39q-18 0 -31.5 12.5t-13.5 34.5zM410 498h755l-153 829z" />
<glyph unicode="B" horiz-adv-x="1468" d="M88 53l356 1327q6 23 23.5 38.5t38.5 15.5h483q197 0 313.5 -87t116.5 -239q0 -102 -52 -184t-136 -132t-191 -71q123 -32 199 -106.5t76 -192.5q0 -187 -161.5 -304.5t-434.5 -117.5h-586q-22 0 -36.5 16t-8.5 37zM207 98h518q222 0 351.5 86.5t129.5 237.5 q0 122 -105 187t-274 65h-467zM387 772h442q217 0 348.5 90t131.5 236q0 117 -86.5 177t-243.5 60h-440z" />
<glyph unicode="C" horiz-adv-x="1511" d="M188 555q0 172 68 337t182 289.5t273.5 200.5t332.5 76q167 0 296 -70.5t200 -185.5q14 -25 14 -45q-2 -21 -16.5 -34.5t-36.5 -12.5q-29 0 -43 23q-69 109 -167 169t-253 60q-151 0 -289.5 -68.5t-236 -180.5t-155.5 -257.5t-58 -296.5q0 -222 135.5 -354.5 t349.5 -132.5q141 0 248.5 47t208.5 141q19 19 39 19t34.5 -15t14.5 -35q0 -21 -20 -41q-109 -102 -235 -158.5t-300 -56.5q-119 0 -225.5 40.5t-186.5 114t-127 184.5t-47 243z" />
<glyph unicode="D" horiz-adv-x="1579" d="M88 53l356 1327q6 23 23.5 38.5t38.5 15.5h274q171 0 316.5 -49t240.5 -144q158 -158 158 -410q0 -163 -57.5 -305t-165.5 -250q-130 -130 -320 -203t-409 -73h-410q-22 0 -36.5 16t-8.5 37zM207 98h350q192 0 354 63.5t281 182.5q192 192 192 479q0 221 -133 351 q-161 161 -477 161h-235z" />
<glyph unicode="E" horiz-adv-x="1329" d="M88 53l356 1327q6 23 23.5 38.5t38.5 15.5h907q20 0 34.5 -15t14.5 -35t-14.5 -34.5t-34.5 -14.5h-874l-152 -563h756q20 0 34.5 -14.5t14.5 -34.5t-14.5 -34.5t-34.5 -14.5h-783l-153 -576h858q20 0 34.5 -14.5t14.5 -34.5t-14.5 -34.5t-34.5 -14.5h-932q-22 0 -36.5 16 t-8.5 37z" />
<glyph unicode="F" horiz-adv-x="1343" d="M86 45l358 1335q6 23 23.5 38.5t38.5 15.5h907q20 0 34.5 -15t14.5 -35t-14.5 -34.5t-34.5 -14.5h-874l-158 -587h756q20 0 34.5 -15t14.5 -35t-14.5 -34.5t-34.5 -14.5h-783l-161 -604q-6 -22 -23.5 -37.5t-38.5 -15.5q-22 0 -36.5 16t-8.5 37z" />
<glyph unicode="G" horiz-adv-x="1609" d="M193 578q0 131 42.5 260.5t122 240.5t185.5 196.5t242 134t282 48.5q317 0 487 -213q21 -25 21 -45q0 -21 -13.5 -36t-35.5 -15q-27 0 -43 22q-135 191 -426 191q-157 0 -299 -67.5t-240.5 -177t-156.5 -250.5t-58 -285q0 -237 141 -374.5t373 -137.5q240 0 414 116 l131 459h-428q-20 0 -34.5 14.5t-14.5 34.5t14.5 34.5t34.5 14.5h496q25 0 39 -18t8 -39l-148 -516q-12 -47 -51 -68q-114 -65 -223 -97t-244 -32q-178 0 -318 73.5t-220 212t-80 319.5z" />
<glyph unicode="H" horiz-adv-x="1548" d="M88 53l361 1342q12 47 57 47q23 0 37.5 -17t7.5 -45l-164 -610h907l168 625q12 47 58 47q23 0 37.5 -17t7.5 -45l-361 -1341q-12 -47 -57 -47q-24 0 -38 16.5t-7 44.5l166 619h-908l-170 -633q-12 -47 -57 -47q-24 0 -38 16.5t-7 44.5z" />
<glyph unicode="I" horiz-adv-x="561" d="M102 53l361 1342q12 47 57 47q23 0 37.5 -17t7.5 -45l-360 -1341q-12 -47 -58 -47q-24 0 -38 16.5t-7 44.5z" />
<glyph unicode="J" horiz-adv-x="1101" d="M-2 293q0 21 14 35t35 14q38 0 51 -41q80 -225 299 -225q154 0 260 106q102 102 160 314l242 899q12 47 57 47q23 0 37.5 -17t7.5 -45l-241 -899q-63 -238 -191 -366q-65 -65 -152 -100t-176 -35q-286 0 -397 278q-6 15 -6 35z" />
<glyph unicode="K" horiz-adv-x="1462" d="M88 53l361 1342q12 47 57 47q23 0 37.5 -17t7.5 -45l-236 -878l1135 921q22 19 45 19q21 0 34 -13t13 -34q0 -25 -24 -43l-695 -559l389 -711q13 -23 13 -39q0 -22 -14.5 -36.5t-36.5 -14.5q-37 0 -56 37l-383 702l-459 -373l-86 -319q-12 -47 -57 -47q-24 0 -38 16.5 t-7 44.5z" />
<glyph unicode="L" horiz-adv-x="1228" d="M88 53l361 1342q12 47 57 47q23 0 37.5 -17t7.5 -45l-344 -1282h786q20 0 34.5 -14.5t14.5 -34.5t-14.5 -34.5t-34.5 -14.5h-860q-22 0 -36.5 16t-8.5 37z" />
<glyph unicode="M" horiz-adv-x="1779" d="M88 53l356 1327q16 60 60 60h2q39 0 55 -41l334 -813l768 811q40 43 82 43h2q28 0 41 -18.5t6 -47.5l-358 -1335q-12 -47 -60 -47q-23 0 -36.5 16.5t-6.5 44.5l320 1192l-729 -764q-28 -28 -52 -28q-31 0 -43 30l-319 762l-322 -1204q-13 -49 -57 -49q-23 0 -36.5 16.5 t-6.5 44.5z" />
<glyph unicode="N" horiz-adv-x="1609" d="M88 53l358 1333q14 54 62 54h4q42 0 70 -54l620 -1208l328 1217q12 47 55 47q23 0 36.5 -17t6.5 -45l-360 -1341q-12 -45 -49 -45h-2q-35 0 -56 43l-641 1245l-334 -1243q-12 -47 -55 -47q-23 0 -36.5 16.5t-6.5 44.5z" />
<glyph unicode="O" horiz-adv-x="1732" d="M197 590q0 166 65.5 324.5t175 278t263.5 192.5t321 73q133 0 248.5 -48t196.5 -130t127 -196t46 -242q0 -166 -65.5 -325t-175 -278.5t-263.5 -192.5t-321 -73q-178 0 -320 82t-220 222.5t-78 312.5zM307 590q0 -223 141.5 -371.5t366.5 -148.5q147 0 281 65.5 t228.5 172.5t150 247t55.5 287q0 223 -141.5 371.5t-366.5 148.5q-147 0 -281 -65.5t-228.5 -172.5t-150 -247t-55.5 -287z" />
<glyph unicode="P" horiz-adv-x="1357" d="M88 53l356 1327q6 23 23.5 38.5t38.5 15.5h399q266 0 395 -129q99 -99 99 -256q0 -242 -190 -377t-519 -135h-364l-136 -498q-12 -47 -57 -47q-24 0 -38 16.5t-7 44.5zM350 633h344q288 0 443 107t155 304q0 118 -73 191q-100 100 -316 100h-364z" />
<glyph unicode="Q" horiz-adv-x="1732" d="M197 590q0 166 65.5 324.5t175 278t263.5 192.5t321 73q133 0 248.5 -48t196.5 -130t127 -196t46 -242q0 -185 -80.5 -359t-218.5 -299l117 -127q25 -29 25 -47q0 -21 -13 -34t-36 -13q-27 0 -48 25l-116 137q-212 -152 -455 -152q-178 0 -320 82t-220 222.5t-78 312.5z M307 590q0 -223 141.5 -371.5t366.5 -148.5q210 0 389 129l-200 223q-27 31 -27 49q0 23 13 37t36 14q24 0 45 -24l205 -240q119 111 186.5 265t67.5 319q0 223 -141.5 371.5t-366.5 148.5q-147 0 -281 -65.5t-228.5 -172.5t-150 -247t-55.5 -287z" />
<glyph unicode="R" horiz-adv-x="1460" d="M88 53l356 1327q6 23 23.5 38.5t38.5 15.5h467q258 0 385 -127q90 -90 90 -234q0 -172 -127 -299q-69 -69 -179 -112.5t-243 -57.5l270 -518q15 -27 15 -45q0 -21 -16 -35t-38 -14q-34 0 -51 33l-295 569h-444l-150 -555q-12 -47 -57 -47q-24 0 -38 16.5t-7 44.5z M365 690h430q154 0 268 39t182 107q96 96 96 231q0 107 -63 170q-98 98 -309 98h-430z" />
<glyph unicode="S" horiz-adv-x="1306" d="M53 256q0 22 13.5 36.5t35.5 14.5q26 0 45 -24q90 -104 203.5 -155.5t272.5 -51.5q177 0 295 89t118 224q0 93 -69.5 157t-243.5 132q-227 89 -318.5 171t-91.5 210q0 166 143.5 280.5t370.5 114.5q271 0 459 -176q23 -23 23 -45t-15 -36.5t-37 -14.5q-25 0 -45 20 q-156 156 -395 156q-178 0 -286.5 -86t-108.5 -205q0 -96 78 -159t264 -134q204 -77 292.5 -162t88.5 -215q0 -176 -152 -296.5t-381 -120.5q-339 0 -538 231q-21 26 -21 45z" />
<glyph unicode="T" horiz-adv-x="1259" d="M293 1384q0 20 14.5 35t34.5 15h1022q20 0 34.5 -15t14.5 -35t-14.5 -34.5t-34.5 -14.5h-471l-348 -1296q-12 -47 -58 -47q-24 0 -38 16.5t-7 44.5l344 1282h-444q-20 0 -34.5 14.5t-14.5 34.5z" />
<glyph unicode="U" horiz-adv-x="1548" d="M197 428q0 109 28 221l199 746q12 47 57 47q23 0 37.5 -17t7.5 -45l-207 -780q-18 -74 -18 -164q0 -162 106.5 -262t313.5 -100q203 0 350 147q134 134 201 381l213 793q12 47 57 47q23 0 37.5 -17t7.5 -45l-215 -800q-72 -267 -227 -422q-181 -181 -432 -181 q-249 0 -382.5 125.5t-133.5 325.5z" />
<glyph unicode="V" horiz-adv-x="1462" d="M299 1393q0 22 15 35.5t38 13.5q49 0 56 -51l196 -1276l893 1288q25 39 59 39q20 0 33 -11t13 -30t-17 -43l-926 -1319q-35 -53 -77 -53h-4q-24 0 -38.5 15t-17.5 38l-219 1321q-4 20 -4 33z" />
<glyph unicode="W" horiz-adv-x="2199" d="M311 1389q0 23 16 38t40 15q25 0 39 -15t16 -41l104 -1228l744 1249q20 35 55 35h2q42 0 45 -43l76 -1241l772 1243q24 41 64 41q19 0 31 -12t12 -29q0 -19 -13 -39l-833 -1325q-12 -19 -18.5 -27.5t-20 -17t-29.5 -8.5h-4q-43 0 -47 53l-82 1198l-725 -1198 q-14 -26 -29 -39.5t-39 -13.5h-4q-43 0 -47 53l-123 1323q0 2 -1 13t-1 16z" />
<glyph unicode="X" horiz-adv-x="1417" d="M12 35q0 22 21 43l669 663l-335 611q-15 30 -15 45q0 18 14 31.5t35 13.5q33 0 48 -31l329 -608l613 608q31 31 55 31q20 0 32.5 -12t12.5 -31q0 -22 -21 -43l-641 -633l349 -641q14 -28 14 -45q0 -18 -14 -31.5t-35 -13.5q-31 0 -47 31l-342 639l-641 -639 q-31 -31 -56 -31q-20 0 -32.5 12t-12.5 31z" />
<glyph unicode="Y" horiz-adv-x="1368" d="M287 1391q0 22 14 36.5t37 14.5q36 0 55 -47l314 -731l725 749q29 29 57 29q19 0 33 -12.5t14 -32.5q0 -24 -25 -49l-778 -793l-137 -516q-12 -47 -57 -47q-24 0 -38 16.5t-7 44.5l141 529l-340 772q-8 19 -8 37z" />
<glyph unicode="Z" horiz-adv-x="1355" d="M-18 35v2q0 27 28 55l1270 1245h-870q-21 0 -35.5 13.5t-14.5 33.5t15 35t35 15h1001q41 0 41 -35v-2q0 -27 -29 -56l-1269 -1245h911q20 0 34.5 -13.5t14.5 -33.5t-14.5 -34.5t-34.5 -14.5h-1042q-41 0 -41 35z" />
<glyph unicode="[" horiz-adv-x="880" d="M49 -205l426 1585q13 54 70 54h461q15 0 26.5 -12t11.5 -27t-11.5 -27t-26.5 -12h-445l-414 -1544h424q15 0 27 -12t12 -27t-12 -27t-27 -12h-473q-28 0 -42 17.5t-7 43.5z" />
<glyph unicode="\" d="M311 1599q0 19 12 31t31 12q37 0 45 -43l430 -1800q5 -20 5 -26q0 -19 -12 -31t-31 -12q-38 0 -46 43l-430 1800q-4 16 -4 26z" />
<glyph unicode="]" horiz-adv-x="880" d="M-133 -227q0 15 12 27t27 12h444l414 1544h-424q-15 0 -27 12t-12 27t12 27t27 12h473q28 0 42 -18t7 -44l-426 -1585q-13 -53 -69 -53h-461q-15 0 -27 12t-12 27z" />
<glyph unicode="^" d="M297 1026q0 15 18 33l359 352q37 37 69 37h9q39 0 55 -37l174 -360q8 -16 8 -25q0 -25 -35 -25q-25 0 -38.5 7t-22.5 26l-158 318l-332 -320q-34 -31 -75 -31q-31 0 -31 25z" />
<glyph unicode="_" horiz-adv-x="1228" d="M-264 -283q0 19 13 32t32 13h1237q19 0 32 -13t13 -32t-13 -32t-32 -13h-1237q-19 0 -32 13t-13 32z" />
<glyph unicode="`" d="M600 1434q0 15 26 31t54 16q43 0 57 -37l74 -189q6 -18 6 -24q0 -19 -26 -19q-33 0 -52 25l-125 164q-14 17 -14 33z" />
<glyph unicode="a" horiz-adv-x="1169" d="M47 268q0 171 131.5 275t339.5 104q190 0 402 -59l8 28q14 54 14 105q0 119 -81 182.5t-234 63.5q-138 0 -265 -43q-16 -4 -26 -4q-19 0 -30 12.5t-11 32.5q0 35 39 47q146 49 301 49q191 0 298 -87t107 -239q0 -59 -20 -137l-150 -559q-12 -47 -55 -47q-23 0 -35 16 t-6 41l35 131q-172 -205 -420 -205q-90 0 -166 31.5t-126 100t-50 161.5zM154 281q0 -97 68.5 -155t185.5 -58q153 0 288.5 97t177.5 251l25 92q-192 49 -395 49q-156 0 -253 -77t-97 -199z" />
<glyph unicode="b" horiz-adv-x="1339" d="M66 49l376 1407q12 47 56 47q23 0 35 -16t6 -41l-164 -606q191 229 434 229q182 0 301 -123.5t119 -316.5q0 -136 -48.5 -258.5t-129.5 -209t-189 -137.5t-223 -51q-162 0 -266.5 83.5t-149.5 209.5l-61 -227q-12 -47 -56 -47q-23 0 -34.5 16t-5.5 41zM274 432 q0 -154 101 -259t260 -105q138 0 250 76.5t173.5 202t61.5 269.5q0 161 -90 260t-233 99q-95 0 -191 -46t-168.5 -120.5t-118 -174.5t-45.5 -202z" />
<glyph unicode="c" horiz-adv-x="1153" d="M102 426q0 168 84 316.5t226.5 237.5t304.5 89q133 0 229 -57.5t156 -149.5q14 -21 14 -41q0 -19 -13 -32t-32 -13q-31 0 -49 27q-56 83 -129 127.5t-182 44.5q-130 0 -246 -75.5t-185 -201t-69 -266.5q0 -86 29.5 -156t78.5 -114t112 -68t132 -24q165 0 314 127 q17 14 38 14q19 0 31 -13t12 -32q0 -21 -18 -39q-176 -152 -383 -152q-69 0 -135 19t-124 57.5t-101.5 91.5t-69 126t-25.5 157z" />
<glyph unicode="d" horiz-adv-x="1339" d="M111 414q0 136 48.5 258.5t129 209t188.5 137t223 50.5q162 0 266.5 -83.5t149.5 -209.5l182 680q12 47 56 47q23 0 35 -16t6 -41l-375 -1407q-12 -47 -55 -47q-23 0 -35 16t-6 41l39 154q-191 -230 -433 -230q-182 0 -300.5 124t-118.5 317zM219 426q0 -160 90.5 -259 t233.5 -99q128 0 249 76.5t197 203t76 262.5q0 154 -101 259.5t-259 105.5q-138 0 -250.5 -77t-174 -202.5t-61.5 -269.5z" />
<glyph unicode="e" horiz-adv-x="1193" d="M102 414q0 121 47.5 239.5t127 210.5t193 148.5t237.5 56.5q126 0 217.5 -55.5t134.5 -144.5t43 -199q0 -62 -15 -135q-10 -48 -61 -48h-811q-4 -46 -4 -69q0 -157 95.5 -252.5t250.5 -95.5q185 0 330 118q19 15 39 15q19 0 31 -12t12 -31q0 -24 -21 -41 q-171 -144 -391 -144q-200 0 -327.5 123t-127.5 316zM233 578h758q8 36 8 86q0 135 -74.5 224t-219.5 89q-168 0 -297 -115t-175 -284z" />
<glyph unicode="f" horiz-adv-x="741" d="M127 49l242 903h-99q-20 0 -33.5 13.5t-13.5 33.5q0 19 14 32t33 13h123l41 152q79 299 334 299q87 0 168 -31q41 -16 41 -51q0 -24 -19 -37t-47 -2q-77 31 -147 31q-178 0 -236 -231l-34 -130h323q20 0 33.5 -13.5t13.5 -33.5q0 -19 -14 -32t-33 -13h-348l-246 -913 q-12 -47 -55 -47q-23 0 -35 16t-6 41z" />
<glyph unicode="g" horiz-adv-x="1339" d="M-2 -117q0 19 13.5 33t33.5 14q23 0 41 -14q182 -154 401 -154q205 0 322 117q91 91 143 275l37 131q-194 -207 -430 -207q-84 0 -162 28t-139.5 78.5t-98 128.5t-36.5 170q0 126 51 237.5t134.5 186.5t190 118.5t216.5 43.5q87 0 156.5 -23t117 -65.5t78 -87.5 t55.5 -102l58 215q12 47 55 47q23 0 35 -16.5t6 -41.5l-229 -866q-55 -202 -164 -311q-150 -150 -400 -150q-124 0 -245 43.5t-218 124.5q-22 19 -22 47zM231 489q0 -100 51 -174t128 -108.5t168 -34.5q128 0 244 67t185.5 175.5t69.5 224.5q0 132 -101 233t-265 101 q-123 0 -232 -60t-178.5 -172.5t-69.5 -251.5z" />
<glyph unicode="h" horiz-adv-x="1247" d="M66 49l376 1407q12 47 56 47q23 0 35 -16t6 -41l-160 -596q87 105 180 162t215 57q155 0 248.5 -90.5t93.5 -241.5q0 -57 -22 -147l-146 -551q-12 -47 -55 -47q-23 0 -35 16t-6 41l145 549q17 66 17 129q0 117 -72 184.5t-197 67.5q-136 0 -263.5 -111t-172.5 -278 l-147 -551q-12 -47 -56 -47q-23 0 -34.5 16t-5.5 41z" />
<glyph unicode="i" horiz-adv-x="512" d="M80 49l256 957q12 47 55 47q23 0 35 -16.5t6 -41.5l-256 -956q-12 -47 -55 -47q-23 0 -35 16t-6 41zM420 1364l14 53q12 47 70 47q28 0 43.5 -16t9.5 -41l-14 -53q-12 -47 -70 -47q-28 0 -43.5 16t-9.5 41z" />
<glyph unicode="j" horiz-adv-x="509" d="M-236 -279q0 24 16.5 37t43.5 9q49 -7 63 -7q52 0 92 35.5t60 106.5l297 1104q12 47 55 47q23 0 35 -16.5t6 -41.5l-295 -1101q-29 -108 -92.5 -168t-150.5 -60q-68 0 -99 12.5t-31 42.5zM420 1364l14 53q12 47 70 47q28 0 43.5 -16t9.5 -41l-14 -53q-12 -47 -70 -47 q-28 0 -43.5 16t-9.5 41z" />
<glyph unicode="k" horiz-adv-x="1146" d="M66 49l376 1407q12 47 56 47q23 0 35 -16t6 -41l-283 -1059l801 649q21 17 43 17q19 0 31 -10.5t12 -30.5q0 -25 -23 -41l-489 -393l268 -498q14 -25 14 -39q0 -22 -14.5 -35.5t-36.5 -13.5q-33 0 -51 35l-264 489l-328 -262l-57 -215q-12 -47 -56 -47q-23 0 -34.5 16 t-5.5 41z" />
<glyph unicode="l" horiz-adv-x="512" d="M80 49l377 1407q12 47 55 47q23 0 35 -16t6 -41l-377 -1407q-12 -47 -55 -47q-23 0 -35 16t-6 41z" />
<glyph unicode="m" horiz-adv-x="1947" d="M66 49l253 957q12 47 56 47q23 0 35 -16.5t6 -41.5l-37 -145q57 70 106 114t119 74.5t150 30.5q68 0 123.5 -22t91.5 -59.5t58.5 -81.5t31.5 -93q73 121 184 188.5t254 67.5q142 0 234 -93t92 -239q0 -37 -27 -147l-145 -551q-12 -47 -56 -47q-23 0 -35 16t-6 41l146 549 q16 62 16 129q0 116 -67 184t-181 68q-128 0 -249.5 -112t-165.5 -277l-146 -551q-12 -47 -55 -47q-23 0 -35 16t-6 41l145 549q17 66 17 129q0 116 -67 184t-181 68q-128 0 -250 -112t-166 -277l-147 -551q-12 -47 -56 -47q-23 0 -34.5 16t-5.5 41z" />
<glyph unicode="n" horiz-adv-x="1251" d="M66 49l253 957q12 47 56 47q23 0 35 -16.5t6 -41.5l-37 -145q87 105 180 162t215 57q155 0 248.5 -90.5t93.5 -241.5q0 -57 -22 -147l-146 -551q-12 -47 -55 -47q-23 0 -35 16t-6 41l145 549q17 66 17 129q0 117 -72 184.5t-197 67.5q-136 0 -263.5 -111t-172.5 -278 l-147 -551q-12 -47 -56 -47q-23 0 -34.5 16t-5.5 41z" />
<glyph unicode="o" horiz-adv-x="1296" d="M104 438q0 122 50.5 237.5t134 202t199 139t237.5 52.5q206 0 335.5 -130.5t129.5 -332.5q0 -125 -52 -242t-137 -201.5t-199 -136t-233 -51.5q-206 0 -335.5 130.5t-129.5 332.5zM213 442q0 -174 100.5 -273t266.5 -99q126 0 241.5 72t187.5 195.5t72 264.5 q0 174 -100.5 273.5t-265.5 99.5q-129 0 -245.5 -74.5t-186.5 -198t-70 -260.5z" />
<glyph unicode="p" horiz-adv-x="1339" d="M-23 -279l342 1285q12 47 56 47q23 0 35 -16.5t6 -41.5l-41 -155q191 229 434 229q182 0 301 -123.5t119 -316.5q0 -136 -48.5 -258.5t-129.5 -209t-189 -137.5t-223 -51q-162 0 -266.5 83.5t-149.5 209.5l-149 -555q-12 -47 -56 -47q-23 0 -35 16t-6 41zM274 432 q0 -154 101 -259t260 -105q138 0 250 76.5t173.5 202t61.5 269.5q0 161 -90 260t-233 99q-95 0 -191 -46t-168.5 -120.5t-118 -174.5t-45.5 -202z" />
<glyph unicode="q" horiz-adv-x="1339" d="M111 414q0 136 48.5 258.5t129 209t188.5 137t223 50.5q84 0 155 -24t121 -66t84.5 -92t55.5 -109l62 228q12 47 55 47q23 0 35 -16.5t6 -41.5l-342 -1284q-12 -47 -55 -47q-23 0 -35 16t-6 41l129 484q-193 -232 -435 -232q-182 0 -300.5 124t-118.5 317zM219 426 q0 -160 90.5 -259t233.5 -99q95 0 190.5 46t168 120.5t118 175t45.5 202.5q0 154 -100.5 258.5t-259.5 104.5q-138 0 -250.5 -77t-174 -202.5t-61.5 -269.5z" />
<glyph unicode="r" horiz-adv-x="811" d="M66 49l253 957q12 47 56 47q23 0 35 -16.5t6 -41.5l-64 -247q95 141 226 227t251 86q26 0 40 -13.5t14 -37.5q0 -56 -74 -62q-177 -16 -329 -153.5t-214 -366.5l-104 -389q-12 -47 -56 -47q-23 0 -34.5 16t-5.5 41z" />
<glyph unicode="s" horiz-adv-x="1013" d="M12 172q0 20 13.5 34.5t33.5 14.5q18 0 45 -20q159 -131 353 -131q105 0 187.5 58t82.5 148q0 64 -48.5 111t-178.5 96q-156 58 -224.5 120t-68.5 161q0 128 107 215.5t280 87.5q91 0 186.5 -33.5t153.5 -77.5q27 -20 27 -47q0 -20 -14 -33.5t-34 -13.5q-17 0 -32 10 q-149 103 -297 103q-125 0 -198 -58t-73 -137q0 -63 47.5 -106.5t188.5 -98.5q157 -62 221 -125t64 -157q0 -89 -53.5 -162t-142.5 -113.5t-194 -40.5q-225 0 -407 148q-25 21 -25 47z" />
<glyph unicode="t" horiz-adv-x="811" d="M172 188q0 47 12 101l178 663h-98q-20 0 -33.5 13.5t-13.5 33.5q0 19 14 32t33 13h123l80 295q12 47 55 47q23 0 35 -16t6 -41l-76 -285h308q20 0 33.5 -13.5t13.5 -33.5q0 -19 -14 -32t-33 -13h-332l-178 -665q-11 -50 -11 -88q0 -63 45 -94t125 -31q44 0 84 12 q30 9 47 -2t17 -35q0 -32 -41 -47q-58 -20 -129 -20q-111 0 -180.5 52t-69.5 154z" />
<glyph unicode="u" horiz-adv-x="1247" d="M131 307q0 54 23 148l145 551q12 47 55 47q23 0 35 -16.5t6 -41.5l-145 -549q-17 -66 -17 -129q0 -117 72 -184t197 -67q136 0 263.5 111t172.5 278l147 551q12 47 56 47q23 0 35 -16.5t6 -41.5l-254 -956q-12 -47 -56 -47q-23 0 -35 16t-6 41l37 146 q-87 -105 -180 -162.5t-215 -57.5q-155 0 -248.5 90.5t-93.5 241.5z" />
<glyph unicode="v" horiz-adv-x="1140" d="M193 1001q0 22 14 37t37 15q46 0 53 -54l139 -886l619 899q25 41 57 41q20 0 32.5 -13.5t12.5 -29.5q0 -23 -14 -43l-664 -938q-30 -43 -63 -43h-4q-20 0 -34.5 12.5t-17.5 30.5l-163 934q-4 20 -4 38z" />
<glyph unicode="w" horiz-adv-x="1730" d="M207 997q0 24 14 40t39 16q22 0 34.5 -15t14.5 -41l72 -862l539 881q24 37 57 37h2q41 0 45 -45l68 -873l544 879q23 39 54 39q43 0 43 -41q0 -17 -13 -39l-598 -946q-24 -41 -59 -41h-2q-47 0 -53 57l-68 844l-530 -858q-24 -43 -60 -43h-2q-20 0 -34 15.5t-15 41.5 l-90 926q0 1 -1 12t-1 16z" />
<glyph unicode="x" horiz-adv-x="1144" d="M2 35q0 23 25 45l495 461l-231 422q-15 30 -15 45q0 19 14 32t36 13q30 0 49 -37l215 -412l432 416q33 33 57 33q19 0 31 -12t12 -31q0 -24 -24 -45l-463 -433l244 -450q14 -28 14 -45q0 -19 -14 -32t-35 -13q-30 0 -49 37l-228 440l-465 -444q-33 -33 -57 -33 q-19 0 -31 12t-12 31z" />
<glyph unicode="y" horiz-adv-x="1163" d="M-174 -240q0 20 13.5 33.5t33.5 13.5q17 0 33 -8q80 -39 147 -39q82 0 161 56t173 190l-197 959q-4 20 -4 36q0 22 13.5 37t36.5 15q43 0 53 -54l174 -888l606 901q26 41 59 41q21 0 33.5 -12t12.5 -31q0 -20 -13 -39l-692 -1008q-112 -161 -212.5 -229t-215.5 -68 q-96 0 -186 49q-29 15 -29 45z" />
<glyph unicode="z" horiz-adv-x="1118" d="M-14 37v2q0 21 20 41l948 874h-653q-19 0 -32 13t-13 32t13 32t32 13h778q43 0 43 -36v-2q0 -21 -20 -41l-948 -875h688q19 0 32 -13t13 -32t-13 -32t-32 -13h-813q-43 0 -43 37z" />
<glyph unicode="{" horiz-adv-x="983" d="M133 588q0 39 49 39h25q157 0 230.5 83.5t115.5 293.5q21 107 55 182t93.5 135.5t151.5 95t222 45.5q45 3 45 -37q0 -36 -41 -39q-139 -11 -227 -60.5t-132.5 -128.5t-68.5 -204q-28 -144 -68 -227.5t-97 -124.5t-148 -57q141 -43 141 -170q0 -56 -18 -117 q-45 -158 -45 -236q0 -103 52 -170.5t167 -105.5q33 -11 33 -35q0 -19 -14.5 -29.5t-39.5 -3.5q-153 40 -226 128t-73 208q0 50 9.5 96.5t37.5 149.5q19 68 19 113q0 68 -46 102.5t-149 34.5h-4q-49 0 -49 39z" />
<glyph unicode="|" horiz-adv-x="585" d="M289 -225v1822q0 19 13 32t32 13t32 -13t13 -32v-1822q0 -19 -13 -32t-32 -13t-32 13t-13 32z" />
<glyph unicode="}" horiz-adv-x="983" d="M-102 -250q0 36 41 39q139 11 227 60.5t132.5 128.5t68.5 204q40 211 109 298.5t204 111.5q-141 43 -141 170q0 56 18 117q45 157 45 235q0 103 -52 171t-167 106q-33 11 -33 34q0 19 14 29.5t39 3.5q153 -40 226 -128t73 -208q0 -50 -9.5 -96t-37.5 -149 q-18 -65 -18 -113q0 -68 45.5 -102.5t148.5 -34.5h5q49 0 49 -39t-49 -39h-25q-157 0 -230.5 -83.5t-115.5 -293.5q-21 -107 -55 -182.5t-93.5 -136t-151.5 -95t-222 -45.5q-45 -3 -45 37z" />
<glyph unicode="~" horiz-adv-x="942" d="M186 532q0 19 15 43q43 75 85 114.5t105 39.5q29 0 54 -10.5t40 -22.5t43 -39q38 -37 56.5 -49t42.5 -12q28 0 51 22t55 76q18 31 41 31q17 0 30 -10t13 -27q0 -21 -14 -43q-42 -74 -85 -113.5t-106 -39.5q-42 0 -69.5 16t-67.5 55q-29 28 -39.5 37t-26 17t-32.5 8 q-28 0 -51.5 -22.5t-55.5 -76.5q-17 -30 -41 -30q-17 0 -30 9.5t-13 26.5z" />
<glyph unicode="&#xa1;" horiz-adv-x="514" d="M70 51l297 987q9 27 30 27q34 0 25 -41l-234 -985q-9 -45 -59 -45h-16q-26 0 -38 15t-5 42zM403 1315l21 78q12 49 74 49q29 0 46 -18t11 -44l-20 -75q-16 -54 -74 -54q-29 0 -46.5 19t-11.5 45z" />
<glyph unicode="&#xa2;" horiz-adv-x="1142" d="M154 621q0 173 83.5 323t227.5 239t313 89q38 0 56 -2l53 135q19 49 55 49q27 0 39 -18.5t2 -44.5l-55 -138q79 -19 145.5 -68t108.5 -120q12 -20 12 -35q0 -22 -13.5 -35.5t-33.5 -13.5q-28 0 -45 25q-43 64 -89.5 100.5t-125.5 58.5l-348 -886q40 -7 73 -7 q185 0 346 131q16 13 35 13q20 0 32.5 -14t12.5 -33t-16 -35q-175 -156 -416 -156q-44 0 -96 10l-64 -159q-19 -49 -57 -49q-26 0 -37 19.5t-2 43.5l68 172q-121 51 -192.5 160t-71.5 246zM262 623q0 -109 51.5 -194.5t143.5 -125.5l344 875h-29q-139 0 -256.5 -75.5 t-185.5 -203.5t-68 -276z" />
<glyph unicode="&#xa3;" horiz-adv-x="1277" d="M-4 27q0 22 24 28l177 37l143 533h-121q-20 0 -34.5 14.5t-14.5 34.5t14.5 34.5t34.5 14.5h148l71 268q56 210 164 318q139 139 334 139q219 0 348 -172q21 -32 21 -47q0 -22 -15 -37.5t-37 -15.5q-28 0 -43 22q-56 77 -119.5 115.5t-160.5 38.5q-145 0 -248 -103 q-93 -93 -143 -276l-68 -250h555q20 0 34.5 -14.5t14.5 -34.5t-14.5 -34.5t-34.5 -14.5h-582l-141 -529h711q20 0 34.5 -14.5t14.5 -34.5t-14.5 -33.5t-34.5 -13.5h-991q-11 0 -19 8t-8 19z" />
<glyph unicode="&#xa5;" horiz-adv-x="1433" d="M156 301q0 20 14 33.5t33 13.5h403l53 201h-378q-19 0 -33.5 13.5t-14.5 31.5q0 19 14.5 33t33.5 14h362l-313 715q-8 19 -8 37q0 21 14 35t37 14q40 0 59 -47l313 -731l725 749q29 29 56 29q19 0 32 -12.5t13 -32.5q0 -21 -23 -47l-696 -709h326q19 0 33 -14t14 -33 t-14 -32t-33 -13h-412l-53 -201h387q19 0 33 -13.5t14 -33.5q0 -19 -14 -32t-33 -13h-412l-57 -217q-12 -47 -58 -47q-24 0 -38 16.5t-7 44.5l54 203h-379q-19 0 -33 13t-14 32z" />
<glyph unicode="&#xa7;" horiz-adv-x="1294" d="M141 166q0 22 14 37.5t35 15.5q19 0 39 -16q160 -131 375 -131q106 0 178 44t72 115q0 63 -66 110t-219 101q-204 72 -294.5 138t-90.5 161q0 118 115.5 190.5t290.5 72.5q-69 30 -113.5 80.5t-44.5 115.5q0 116 106.5 185t264.5 69q118 0 232 -40.5t190 -100.5 q24 -18 24 -45q0 -22 -14 -38t-35 -16q-18 0 -39 17q-163 131 -373 131q-106 0 -177.5 -44.5t-71.5 -115.5q0 -63 65.5 -110t218.5 -101q204 -72 294.5 -138t90.5 -161q0 -118 -115 -190t-290 -72q69 -30 113.5 -81t44.5 -116q0 -116 -106.5 -184.5t-264.5 -68.5 q-126 0 -237 41.5t-187 99.5q-25 19 -25 45zM291 750q0 -60 62 -107t210 -98q122 -43 240 -43q127 0 213 53.5t86 128.5q0 60 -62.5 107t-210.5 98q-125 43 -239 43q-127 0 -213 -53.5t-86 -128.5z" />
<glyph unicode="&#xa8;" d="M453 1274l18 67q16 56 76 56q31 0 48.5 -20t10.5 -48l-18 -67q-16 -56 -76 -56q-31 0 -48 20t-11 48zM786 1274l19 67q16 56 76 56q31 0 48.5 -20t10.5 -48l-18 -67q-16 -56 -76 -56q-31 0 -48.5 20t-11.5 48z" />
<glyph unicode="&#xa9;" horiz-adv-x="1699" d="M160 715q0 150 58 287t157 237t237 159.5t291 59.5t290.5 -59t235.5 -158t155.5 -235.5t57.5 -286.5q0 -200 -98 -371t-269.5 -272t-375.5 -101t-374.5 100t-267.5 270t-97 370zM221 715q0 -186 88 -342.5t244 -248t346 -91.5q143 0 270 54.5t217 147t142.5 219 t52.5 265.5q0 186 -88 342.5t-244 248t-346 91.5q-143 0 -270 -54.5t-217 -147t-142.5 -219t-52.5 -265.5zM537 725v4q0 158 108.5 272.5t265.5 114.5q84 0 146 -26.5t119 -75.5q18 -15 18 -37q0 -19 -13 -31t-32 -12q-15 0 -33 14q-101 86 -207 86q-120 0 -201 -88.5 t-81 -214.5v-4q0 -125 83 -215t201 -90q66 0 114 21t101 67q15 12 31 12q17 0 28 -11t11 -28q0 -18 -16 -34q-58 -52 -122 -80.5t-149 -28.5q-157 0 -264.5 112.5t-107.5 272.5z" />
<glyph unicode="&#xaa;" horiz-adv-x="798" d="M119 641q0 17 12 29t29 12h438q17 0 29 -12t12 -29t-12 -29t-29 -12h-438q-17 0 -29 12t-12 29zM217 993q0 97 75 157t193 60q81 0 199 -30l4 12q8 28 8 55q0 119 -159 119q-69 0 -127 -18q-21 -7 -31 -7q-14 0 -23.5 10t-9.5 27q0 26 31 35q85 29 174 29 q108 0 167.5 -48t59.5 -132q0 -26 -12 -80l-80 -299q-9 -39 -45 -39q-20 0 -29.5 12.5t-5.5 32.5l19 65q-102 -114 -234 -114q-74 0 -124 42t-50 111zM303 1001q0 -43 30 -69.5t79 -26.5q78 0 153 56.5t97 132.5l8 28q-106 25 -185 25q-80 0 -131 -41t-51 -105z" />
<glyph unicode="&#xab;" horiz-adv-x="1054" d="M96 516q0 14 15 29l391 377q32 32 55 32q20 0 31.5 -12.5t11.5 -32.5q0 -21 -18 -39l-363 -362l154 -340q8 -19 8 -35q0 -19 -13.5 -32t-33.5 -13q-32 0 -47 35l-181 362q-10 20 -10 31zM514 516q0 15 14 29l392 377q32 32 55 32q20 0 31.5 -12.5t11.5 -32.5t-19 -39 l-362 -362l154 -340q8 -19 8 -35q0 -19 -13.5 -32t-33.5 -13q-32 0 -47 35l-181 362q-10 20 -10 31z" />
<glyph unicode="&#xad;" horiz-adv-x="837" d="M158 608q0 23 17 40.5t40 17.5h453q23 0 40 -17.5t17 -40.5t-17 -40t-40 -17h-453q-23 0 -40 17t-17 40z" />
<glyph unicode="&#xae;" horiz-adv-x="851" d="M223 1094v2q0 147 104.5 252.5t252.5 105.5q150 0 253 -104.5t103 -251.5v-2q0 -147 -104 -253t-252 -106q-150 0 -253.5 105t-103.5 252zM264 1094q0 -132 91 -225t225 -93q132 0 223.5 94t91.5 226v2q0 132 -90.5 224.5t-224.5 92.5q-133 0 -224.5 -94t-91.5 -225v-2z M446 946v307q0 12 8.5 20.5t20.5 8.5h131q58 0 95.5 -29.5t37.5 -81.5q0 -40 -23.5 -69t-62.5 -41l78 -92q10 -13 10 -25q0 -11 -7 -18.5t-19 -7.5q-16 0 -29 16l-100 121h-82v-109q0 -12 -8.5 -20t-20.5 -8t-20.5 8t-8.5 20zM504 1102h96q38 0 59 17.5t21 47.5q0 64 -80 64 h-96v-129z" />
<glyph unicode="&#xaf;" d="M408 1321q0 20 14.5 34.5t34.5 14.5h540q20 0 35 -14.5t15 -34.5t-15 -34.5t-35 -14.5h-540q-20 0 -34.5 14.5t-14.5 34.5z" />
<glyph unicode="&#xb0;" horiz-adv-x="749" d="M180 1100q0 137 101.5 240.5t238.5 103.5q113 0 185.5 -73.5t72.5 -184.5q0 -137 -101.5 -240.5t-238.5 -103.5q-113 0 -185.5 73.5t-72.5 184.5zM272 1110q0 -83 49.5 -132.5t127.5 -49.5q94 0 165.5 75t71.5 173q0 83 -49 132.5t-127 49.5q-94 0 -166 -75t-72 -173z " />
<glyph unicode="&#xb1;" horiz-adv-x="1269" d="M27 49q0 -20 14.5 -34.5t34.5 -14.5h868q20 0 34.5 14.5t14.5 34.5t-14.5 34.5t-34.5 14.5h-868q-20 0 -34.5 -14.5t-14.5 -34.5zM221 782q0 20 14.5 34.5t34.5 14.5h398l100 377q13 47 57 47q25 0 37 -17t6 -40l-98 -367h371q20 0 34.5 -13.5t14.5 -33.5t-14.5 -35.5 t-34.5 -15.5h-398l-100 -375q-14 -49 -57 -49q-25 0 -37 18.5t-6 41.5l98 364h-371q-20 0 -34.5 14.5t-14.5 34.5z" />
<glyph unicode="&#xb4;" d="M539 1233q0 12 10 22l180 195q14 14 19.5 19t16.5 10.5t23 5.5q29 0 60 -18t31 -33q0 -19 -23 -35l-211 -160q-36 -27 -78 -27q-28 0 -28 21z" />
<glyph unicode="&#xb6;" horiz-adv-x="995" d="M209 913q0 244 178.5 382.5t489.5 138.5h88q27 0 39.5 -16.5t5.5 -45.5l-359 -1333q-12 -47 -59 -47q-24 0 -38 16.5t-7 44.5l129 486q-99 5 -180 28.5t-147 66.5t-103 114t-37 165z" />
<glyph unicode="&#xb7;" horiz-adv-x="473" d="M182 575l21 76q16 54 73 54q29 0 46.5 -19t11.5 -45l-21 -78q-12 -49 -73 -49q-30 0 -47 17.5t-11 43.5z" />
<glyph unicode="&#xb8;" d="M170 -246q0 22 20 45l209 221h88l-219 -288q-20 -25 -43 -25q-24 0 -39.5 14.5t-15.5 32.5z" />
<glyph unicode="&#xba;" horiz-adv-x="798" d="M123 641q0 17 12 29t29 12h487q17 0 29 -12t12 -29t-12 -29t-29 -12h-487q-17 0 -29 12t-12 29zM236 1098q0 138 101 242t241 104q118 0 192 -74.5t74 -189.5q0 -138 -101 -242t-241 -104q-119 0 -192.5 74.5t-73.5 189.5zM322 1102q0 -87 52 -140t134 -53q100 0 174 81 t74 186q0 87 -51.5 139.5t-133.5 52.5q-102 0 -175.5 -80t-73.5 -186z" />
<glyph unicode="&#xbb;" horiz-adv-x="1054" d="M35 133q0 21 18 39l363 363l-154 339q-8 19 -8 35q0 19 13.5 32t33.5 13q32 0 47 -34l180 -363q11 -22 11 -31q0 -13 -15 -28l-391 -377q-33 -33 -55 -33q-20 0 -31.5 12.5t-11.5 32.5zM453 133q0 21 18 39l363 363l-154 339q-8 19 -8 35q0 19 13.5 32t33.5 13 q32 0 47 -34l180 -363q10 -20 10 -31q0 -14 -14 -28l-391 -377q-33 -33 -55 -33q-20 0 -31.5 12.5t-11.5 32.5z" />
<glyph unicode="&#xbf;" horiz-adv-x="1093" d="M104 340q0 99 43.5 181t119.5 138t172 92t208 52l80 233q11 31 35 31h2q16 0 25.5 -12t5.5 -33l-50 -258q-6 -44 -49 -49q-218 -23 -350.5 -120t-132.5 -253q0 -125 88 -194.5t223 -69.5q202 0 379 158q24 20 43 20q20 0 33.5 -13t13.5 -32q0 -21 -16 -37 q-200 -192 -461 -192q-188 0 -300 100t-112 258zM770 1315l21 78q12 49 73 49q30 0 47 -18t11 -44l-21 -75q-16 -54 -74 -54q-29 0 -46 19t-11 45z" />
<glyph unicode="&#xc0;" horiz-adv-x="1517" d="M-31 39q0 18 13 31l968 1327q38 51 80 51h4q53 0 64 -51l256 -1323q4 -16 4 -33q0 -20 -14.5 -34.5t-36.5 -14.5q-21 0 -36.5 13.5t-19.5 37.5l-65 358h-846l-268 -370q-31 -39 -58 -39q-18 0 -31.5 12.5t-13.5 34.5zM410 498h755l-153 829zM866 1802q0 15 26 31t54 16 q44 0 58 -37l73 -188q6 -18 6 -25q0 -18 -26 -18q-32 0 -51 25l-125 163q-15 18 -15 33z" />
<glyph unicode="&#xc1;" horiz-adv-x="1517" d="M-31 39q0 18 13 31l968 1327q38 51 80 51h4q53 0 64 -51l256 -1323q4 -16 4 -33q0 -20 -14.5 -34.5t-36.5 -14.5q-21 0 -36.5 13.5t-19.5 37.5l-65 358h-846l-268 -370q-31 -39 -58 -39q-18 0 -31.5 12.5t-13.5 34.5zM410 498h755l-153 829zM1042 1602q0 11 11 22 l180 195q13 13 19.5 18.5t17 10.5t22.5 5q29 0 59.5 -18t30.5 -33q0 -19 -22 -35l-211 -159q-36 -27 -78 -27q-29 0 -29 21z" />
<glyph unicode="&#xc2;" horiz-adv-x="1517" d="M-31 39q0 18 13 31l968 1327q38 51 80 51h4q53 0 64 -51l256 -1323q4 -16 4 -33q0 -20 -14.5 -34.5t-36.5 -14.5q-21 0 -36.5 13.5t-19.5 37.5l-65 358h-846l-268 -370q-31 -39 -58 -39q-18 0 -31.5 12.5t-13.5 34.5zM410 498h755l-153 829zM854 1602q0 12 16 28l193 176 q37 37 67 37h13q18 0 29 -8.5t22 -28.5l98 -178q11 -22 11 -26q0 -8 -8 -14.5t-21 -6.5q-24 0 -38 5t-28 24l-90 116l-168 -118q-17 -11 -24.5 -15.5t-18.5 -8t-24 -3.5q-14 0 -21.5 6.5t-7.5 14.5z" />
<glyph unicode="&#xc3;" horiz-adv-x="1517" d="M-31 39q0 18 13 31l968 1327q38 51 80 51h4q53 0 64 -51l256 -1323q4 -16 4 -33q0 -20 -14.5 -34.5t-36.5 -14.5q-21 0 -36.5 13.5t-19.5 37.5l-65 358h-846l-268 -370q-31 -39 -58 -39q-18 0 -31.5 12.5t-13.5 34.5zM410 498h755l-153 829zM791 1614q0 21 14 43 q42 74 84.5 113.5t105.5 39.5q42 0 70 -16.5t68 -54.5q29 -28 39.5 -37t26 -17t32.5 -8q28 0 50.5 22.5t55.5 76.5q17 30 41 30q17 0 30 -10t13 -27q0 -21 -14 -43q-42 -74 -84.5 -113.5t-105.5 -39.5q-29 0 -54 10t-40.5 23t-43.5 39q-28 27 -39 36.5t-26.5 17t-32.5 7.5 q-28 0 -51.5 -22.5t-55.5 -75.5q-18 -31 -40 -31q-17 0 -30 10t-13 27z" />
<glyph unicode="&#xc4;" horiz-adv-x="1517" d="M-31 39q0 18 13 31l968 1327q38 51 80 51h4q53 0 64 -51l256 -1323q4 -16 4 -33q0 -20 -14.5 -34.5t-36.5 -14.5q-21 0 -36.5 13.5t-19.5 37.5l-65 358h-846l-268 -370q-31 -39 -58 -39q-18 0 -31.5 12.5t-13.5 34.5zM410 498h755l-153 829zM854 1642l18 68q16 55 76 55 q31 0 49 -20t11 -47l-19 -68q-16 -55 -76 -55q-31 0 -48 19.5t-11 47.5zM1188 1642l18 68q16 55 76 55q31 0 48.5 -19.5t10.5 -47.5l-18 -68q-16 -55 -76 -55q-31 0 -48 19.5t-11 47.5z" />
<glyph unicode="&#xc5;" horiz-adv-x="1517" d="M-31 39q0 18 13 31l968 1325q-44 22 -69 60t-25 85q0 87 64 148t153 61q87 0 142 -47.5t55 -120.5q0 -74 -48.5 -130.5t-121.5 -74.5l254 -1302q4 -16 4 -33q0 -20 -14.5 -34.5t-36.5 -14.5q-21 0 -36.5 13.5t-19.5 37.5l-65 358h-846l-268 -370q-31 -39 -58 -39 q-18 0 -31.5 12.5t-13.5 34.5zM410 498h755l-153 829zM930 1540q0 -46 32.5 -74t90.5 -28q60 0 101.5 41.5t41.5 101.5q0 46 -32.5 74t-90.5 28q-60 0 -101.5 -41.5t-41.5 -101.5z" />
<glyph unicode="&#xc6;" horiz-adv-x="2187" d="M-16 35q0 22 18 43l1139 1304q34 37 53 46q14 6 29 6h1015q20 0 35 -15t15 -35t-15 -34.5t-35 -14.5h-854l-151 -563h735q20 0 34.5 -14.5t14.5 -34.5t-14.5 -34.5t-34.5 -14.5h-762l-153 -576h837q20 0 34.5 -14.5t14.5 -34.5t-14.5 -34.5t-34.5 -14.5h-911 q-22 0 -36.5 16t-8.5 37l94 348h-616l-320 -368q-35 -41 -65 -41q-19 0 -31 11.5t-12 31.5zM496 498h557l225 839h-55z" />
<glyph unicode="&#xc7;" horiz-adv-x="1511" d="M188 555q0 172 68 337t182 289.5t273.5 200.5t332.5 76q167 0 296 -70.5t200 -185.5q14 -25 14 -45q-2 -21 -16.5 -34.5t-36.5 -12.5q-29 0 -43 23q-69 109 -167 169t-253 60q-151 0 -289.5 -68.5t-236 -180.5t-155.5 -257.5t-58 -296.5q0 -222 135.5 -354.5 t349.5 -132.5q141 0 248.5 47t208.5 141q19 19 39 19t34.5 -15t14.5 -35q0 -21 -20 -41q-109 -102 -235 -158.5t-300 -56.5h-10l-182 -241q-20 -25 -43 -25q-24 0 -40 14.5t-16 32.5q0 21 21 45l170 183q-102 15 -190.5 61t-154.5 118t-103.5 173.5t-37.5 220.5z" />
<glyph unicode="&#xc8;" horiz-adv-x="1329" d="M88 53l356 1327q6 23 23.5 38.5t38.5 15.5h907q20 0 34.5 -15t14.5 -35t-14.5 -34.5t-34.5 -14.5h-874l-152 -563h756q20 0 34.5 -14.5t14.5 -34.5t-14.5 -34.5t-34.5 -14.5h-783l-153 -576h858q20 0 34.5 -14.5t14.5 -34.5t-14.5 -34.5t-34.5 -14.5h-932q-22 0 -36.5 16 t-8.5 37zM776 1782q0 15 26 31t54 16q43 0 57 -37l74 -188q6 -18 6 -25q0 -18 -26 -18q-34 0 -52 24l-124 164q-15 18 -15 33z" />
<glyph unicode="&#xc9;" horiz-adv-x="1329" d="M88 53l356 1327q6 23 23.5 38.5t38.5 15.5h907q20 0 34.5 -15t14.5 -35t-14.5 -34.5t-34.5 -14.5h-874l-152 -563h756q20 0 34.5 -14.5t14.5 -34.5t-14.5 -34.5t-34.5 -14.5h-783l-153 -576h858q20 0 34.5 -14.5t14.5 -34.5t-14.5 -34.5t-34.5 -14.5h-932q-22 0 -36.5 16 t-8.5 37zM952 1581q0 12 11 23l180 194q14 14 19.5 19t16.5 10.5t23 5.5q29 0 59.5 -18t30.5 -33q0 -19 -22 -35l-211 -160q-35 -26 -78 -26q-29 0 -29 20z" />
<glyph unicode="&#xca;" horiz-adv-x="1329" d="M88 53l356 1327q6 23 23.5 38.5t38.5 15.5h907q20 0 34.5 -15t14.5 -35t-14.5 -34.5t-34.5 -14.5h-874l-152 -563h756q20 0 34.5 -14.5t14.5 -34.5t-14.5 -34.5t-34.5 -14.5h-783l-153 -576h858q20 0 34.5 -14.5t14.5 -34.5t-14.5 -34.5t-34.5 -14.5h-932q-22 0 -36.5 16 t-8.5 37zM764 1581q0 13 16 29l193 176q37 37 67 37h13q18 0 29 -8.5t22 -28.5l98 -178q10 -20 10 -27q0 -8 -7.5 -14t-20.5 -6q-24 0 -38 5t-28 23l-90 117l-168 -119q-39 -26 -67 -26q-29 0 -29 20z" />
<glyph unicode="&#xcb;" horiz-adv-x="1329" d="M88 53l356 1327q6 23 23.5 38.5t38.5 15.5h907q20 0 34.5 -15t14.5 -35t-14.5 -34.5t-34.5 -14.5h-874l-152 -563h756q20 0 34.5 -14.5t14.5 -34.5t-14.5 -34.5t-34.5 -14.5h-783l-153 -576h858q20 0 34.5 -14.5t14.5 -34.5t-14.5 -34.5t-34.5 -14.5h-932q-22 0 -36.5 16 t-8.5 37zM764 1622l18 68q16 55 76 55q31 0 49 -20t11 -48l-19 -67q-16 -56 -76 -56q-31 0 -48 20t-11 48zM1098 1622l18 68q16 55 76 55q31 0 48.5 -20t10.5 -48l-18 -67q-16 -56 -76 -56q-31 0 -48 20t-11 48z" />
<glyph unicode="&#xcc;" horiz-adv-x="561" d="M102 53l361 1342q12 47 57 47q23 0 37.5 -17t7.5 -45l-360 -1341q-12 -47 -58 -47q-24 0 -38 16.5t-7 44.5zM350 1782q0 15 26 31t54 16q43 0 57 -37l74 -188q6 -18 6 -25q0 -18 -26 -18q-34 0 -52 24l-124 164q-15 18 -15 33z" />
<glyph unicode="&#xcd;" horiz-adv-x="561" d="M102 53l361 1342q12 47 57 47q23 0 37.5 -17t7.5 -45l-360 -1341q-12 -47 -58 -47q-24 0 -38 16.5t-7 44.5zM526 1581q0 12 11 23l180 194q14 14 19.5 19t16.5 10.5t23 5.5q29 0 59.5 -18t30.5 -33q0 -19 -22 -35l-211 -160q-35 -26 -78 -26q-29 0 -29 20z" />
<glyph unicode="&#xce;" horiz-adv-x="561" d="M102 53l361 1342q12 47 57 47q23 0 37.5 -17t7.5 -45l-360 -1341q-12 -47 -58 -47q-24 0 -38 16.5t-7 44.5zM338 1581q0 13 16 29l193 176q37 37 67 37h13q18 0 29 -8.5t22 -28.5l98 -178q10 -20 10 -27q0 -8 -7.5 -14t-20.5 -6q-24 0 -38 5t-28 23l-90 117l-168 -119 q-39 -26 -67 -26q-29 0 -29 20z" />
<glyph unicode="&#xcf;" horiz-adv-x="561" d="M102 53l361 1342q12 47 57 47q23 0 37.5 -17t7.5 -45l-360 -1341q-12 -47 -58 -47q-24 0 -38 16.5t-7 44.5zM340 1622l18 68q16 55 76 55q31 0 49 -20t11 -48l-19 -67q-16 -56 -76 -56q-31 0 -48 20t-11 48zM674 1622l18 68q16 55 76 55q31 0 48.5 -20t10.5 -48l-18 -67 q-16 -56 -76 -56q-31 0 -48 20t-11 48z" />
<glyph unicode="&#xd0;" horiz-adv-x="1640" d="M150 53l165 619h-98q-20 0 -34.5 14.5t-14.5 34.5t14.5 34.5t34.5 14.5h125l164 610q6 23 23 38.5t38 15.5h275q171 0 316.5 -49t240.5 -144q157 -157 157 -410q0 -163 -57.5 -305t-165.5 -250q-130 -130 -320 -203t-409 -73h-409q-22 0 -36.5 16t-8.5 37zM268 98h350 q192 0 354 63.5t281 182.5q193 193 193 479q0 221 -133 351q-161 161 -477 161h-236l-151 -565h419q20 0 35 -14.5t15 -34.5t-15 -34.5t-35 -14.5h-446z" />
<glyph unicode="&#xd1;" horiz-adv-x="1609" d="M88 53l358 1333q14 54 62 54h4q42 0 70 -54l620 -1208l328 1217q12 47 55 47q23 0 36.5 -17t6.5 -45l-360 -1341q-12 -45 -49 -45h-2q-35 0 -56 43l-641 1245l-334 -1243q-12 -47 -55 -47q-23 0 -36.5 16.5t-6.5 44.5zM799 1593q0 21 14 43q43 74 85.5 114t105.5 40 q29 0 54 -10.5t40 -22.5t43 -39t39 -36.5t26.5 -17t32.5 -7.5q28 0 51.5 22.5t55.5 75.5q18 31 40 31q17 0 30.5 -10t13.5 -27q0 -19 -15 -43q-43 -75 -85 -114.5t-105 -39.5q-29 0 -54 10t-40.5 23t-43.5 39q-29 28 -39.5 37t-26 17t-32.5 8q-28 0 -50.5 -22.5t-55.5 -76.5 q-18 -31 -41 -31q-17 0 -30 10t-13 27z" />
<glyph unicode="&#xd2;" horiz-adv-x="1732" d="M197 590q0 166 65.5 324.5t175 278t263.5 192.5t321 73q133 0 248.5 -48t196.5 -130t127 -196t46 -242q0 -166 -65.5 -325t-175 -278.5t-263.5 -192.5t-321 -73q-178 0 -320 82t-220 222.5t-78 312.5zM307 590q0 -223 141.5 -371.5t366.5 -148.5q147 0 281 65.5 t228.5 172.5t150 247t55.5 287q0 223 -141.5 371.5t-366.5 148.5q-147 0 -281 -65.5t-228.5 -172.5t-150 -247t-55.5 -287zM913 1802q0 15 26 31t54 16q44 0 58 -37l73 -188q6 -18 6 -25q0 -18 -26 -18q-32 0 -51 25l-125 163q-15 18 -15 33z" />
<glyph unicode="&#xd3;" horiz-adv-x="1732" d="M197 590q0 166 65.5 324.5t175 278t263.5 192.5t321 73q133 0 248.5 -48t196.5 -130t127 -196t46 -242q0 -166 -65.5 -325t-175 -278.5t-263.5 -192.5t-321 -73q-178 0 -320 82t-220 222.5t-78 312.5zM307 590q0 -223 141.5 -371.5t366.5 -148.5q147 0 281 65.5 t228.5 172.5t150 247t55.5 287q0 223 -141.5 371.5t-366.5 148.5q-147 0 -281 -65.5t-228.5 -172.5t-150 -247t-55.5 -287zM1090 1602q0 12 10 22l180 195q13 13 19.5 18.5t17 10.5t22.5 5q29 0 60 -18t31 -33q0 -19 -23 -35l-211 -159q-36 -27 -78 -27q-28 0 -28 21z" />
<glyph unicode="&#xd4;" horiz-adv-x="1732" d="M197 590q0 166 65.5 324.5t175 278t263.5 192.5t321 73q133 0 248.5 -48t196.5 -130t127 -196t46 -242q0 -166 -65.5 -325t-175 -278.5t-263.5 -192.5t-321 -73q-178 0 -320 82t-220 222.5t-78 312.5zM307 590q0 -223 141.5 -371.5t366.5 -148.5q147 0 281 65.5 t228.5 172.5t150 247t55.5 287q0 223 -141.5 371.5t-366.5 148.5q-147 0 -281 -65.5t-228.5 -172.5t-150 -247t-55.5 -287zM899 1602q0 12 16 28l193 176q37 37 68 37h12q18 0 29 -8.5t22 -28.5l98 -178q11 -22 11 -26q0 -8 -8 -14.5t-21 -6.5q-24 0 -38 5t-28 24l-90 116 l-168 -118q-17 -11 -24.5 -15.5t-18.5 -8t-24 -3.5q-14 0 -21.5 6.5t-7.5 14.5z" />
<glyph unicode="&#xd5;" horiz-adv-x="1732" d="M197 590q0 166 65.5 324.5t175 278t263.5 192.5t321 73q133 0 248.5 -48t196.5 -130t127 -196t46 -242q0 -166 -65.5 -325t-175 -278.5t-263.5 -192.5t-321 -73q-178 0 -320 82t-220 222.5t-78 312.5zM307 590q0 -223 141.5 -371.5t366.5 -148.5q147 0 281 65.5 t228.5 172.5t150 247t55.5 287q0 223 -141.5 371.5t-366.5 148.5q-147 0 -281 -65.5t-228.5 -172.5t-150 -247t-55.5 -287zM838 1614q0 21 14 43q42 74 84.5 113.5t105.5 39.5q42 0 70 -16.5t68 -54.5q29 -28 39.5 -37t26 -17t32.5 -8q28 0 50.5 22.5t55.5 76.5q17 30 41 30 q17 0 30 -10t13 -27q0 -21 -14 -43q-42 -74 -84.5 -113.5t-105.5 -39.5q-29 0 -54 10t-40.5 23t-43.5 39q-28 27 -39 36.5t-26.5 17t-32.5 7.5q-28 0 -51 -22t-55 -76q-18 -31 -41 -31q-17 0 -30 10t-13 27z" />
<glyph unicode="&#xd6;" horiz-adv-x="1732" d="M197 590q0 166 65.5 324.5t175 278t263.5 192.5t321 73q133 0 248.5 -48t196.5 -130t127 -196t46 -242q0 -166 -65.5 -325t-175 -278.5t-263.5 -192.5t-321 -73q-178 0 -320 82t-220 222.5t-78 312.5zM307 590q0 -223 141.5 -371.5t366.5 -148.5q147 0 281 65.5 t228.5 172.5t150 247t55.5 287q0 223 -141.5 371.5t-366.5 148.5q-147 0 -281 -65.5t-228.5 -172.5t-150 -247t-55.5 -287zM901 1642l19 68q16 55 75 55q31 0 49 -20t11 -47l-19 -68q-16 -55 -75 -55q-31 0 -48.5 19.5t-11.5 47.5zM1235 1642l18 68q16 55 76 55q31 0 49 -20 t11 -47l-19 -68q-16 -55 -76 -55q-31 0 -48 19.5t-11 47.5z" />
<glyph unicode="&#xd7;" horiz-adv-x="1269" d="M158 342q0 24 22 41l443 346l-248 334q-15 21 -15 37q0 20 16 35.5t38 15.5q27 0 43 -23l245 -340l441 351q16 12 33 12q19 0 32 -14.5t13 -34.5q0 -24 -23 -41l-442 -346l248 -334q14 -20 14 -37q0 -20 -15.5 -35.5t-37.5 -15.5q-27 0 -43 22l-246 340l-440 -350 q-16 -12 -33 -12q-19 0 -32 14.5t-13 34.5z" />
<glyph unicode="&#xd8;" horiz-adv-x="1732" d="M31 20q0 24 22 43l234 195q-90 152 -90 332q0 166 65.5 324.5t175 278t263.5 192.5t321 73q142 0 261 -52t204 -146l194 163q33 29 60 29q19 0 30 -10t11 -27q0 -25 -23 -45l-217 -182q98 -157 98 -346q0 -166 -65.5 -325t-175 -278.5t-263.5 -192.5t-321 -73 q-146 0 -267.5 56t-207.5 155l-209 -174q-33 -28 -61 -28q-17 0 -28 10.5t-11 27.5zM307 590q0 -146 62 -264l1040 868q-145 168 -387 168q-147 0 -281 -65.5t-228.5 -172.5t-150 -247t-55.5 -287zM418 250q67 -86 169 -133t228 -47q147 0 281 65.5t228.5 172.5t150 247 t55.5 287q0 154 -70 278z" />
<glyph unicode="&#xd9;" horiz-adv-x="1548" d="M197 428q0 109 28 221l199 746q12 47 57 47q23 0 37.5 -17t7.5 -45l-207 -780q-18 -74 -18 -164q0 -162 106.5 -262t313.5 -100q203 0 350 147q134 134 201 381l213 793q12 47 57 47q23 0 37.5 -17t7.5 -45l-215 -800q-72 -267 -227 -422q-181 -181 -432 -181 q-249 0 -382.5 125.5t-133.5 325.5zM821 1782q0 15 26 31t54 16q43 0 57 -37l74 -188q6 -18 6 -25q0 -18 -26 -18q-33 0 -51 24l-125 164q-15 18 -15 33z" />
<glyph unicode="&#xda;" horiz-adv-x="1548" d="M197 428q0 109 28 221l199 746q12 47 57 47q23 0 37.5 -17t7.5 -45l-207 -780q-18 -74 -18 -164q0 -162 106.5 -262t313.5 -100q203 0 350 147q134 134 201 381l213 793q12 47 57 47q23 0 37.5 -17t7.5 -45l-215 -800q-72 -267 -227 -422q-181 -181 -432 -181 q-249 0 -382.5 125.5t-133.5 325.5zM997 1581q0 12 11 23l180 194q14 14 19.5 19t16.5 10.5t23 5.5q29 0 59.5 -18t30.5 -33q0 -19 -22 -35l-211 -160q-35 -26 -78 -26q-29 0 -29 20z" />
<glyph unicode="&#xdb;" horiz-adv-x="1548" d="M197 428q0 109 28 221l199 746q12 47 57 47q23 0 37.5 -17t7.5 -45l-207 -780q-18 -74 -18 -164q0 -162 106.5 -262t313.5 -100q203 0 350 147q134 134 201 381l213 793q12 47 57 47q23 0 37.5 -17t7.5 -45l-215 -800q-72 -267 -227 -422q-181 -181 -432 -181 q-249 0 -382.5 125.5t-133.5 325.5zM809 1581q0 13 16 29l193 176q37 37 67 37h13q18 0 29 -8.5t22 -28.5l98 -178q10 -20 10 -27q0 -8 -7.5 -14t-20.5 -6q-24 0 -38 5t-28 23l-90 117l-168 -119q-39 -26 -67 -26q-29 0 -29 20z" />
<glyph unicode="&#xdc;" horiz-adv-x="1548" d="M197 428q0 109 28 221l199 746q12 47 57 47q23 0 37.5 -17t7.5 -45l-207 -780q-18 -74 -18 -164q0 -162 106.5 -262t313.5 -100q203 0 350 147q134 134 201 381l213 793q12 47 57 47q23 0 37.5 -17t7.5 -45l-215 -800q-72 -267 -227 -422q-181 -181 -432 -181 q-249 0 -382.5 125.5t-133.5 325.5zM811 1622l18 68q16 55 76 55q31 0 49 -20t11 -48l-19 -67q-16 -56 -76 -56q-31 0 -48 20t-11 48zM1145 1622l18 68q16 55 76 55q31 0 48.5 -20t10.5 -48l-18 -67q-16 -56 -76 -56q-31 0 -48 20t-11 48z" />
<glyph unicode="&#xdd;" horiz-adv-x="1368" d="M287 1391q0 22 14 36.5t37 14.5q36 0 55 -47l314 -731l725 749q29 29 57 29q19 0 33 -12.5t14 -32.5q0 -24 -25 -49l-778 -793l-137 -516q-12 -47 -57 -47q-24 0 -38 16.5t-7 44.5l141 529l-340 772q-8 19 -8 37zM899 1581q0 13 10 23l181 194q14 14 19.5 19t16.5 10.5 t23 5.5q29 0 59.5 -18t30.5 -33q0 -19 -22 -35l-211 -160q-35 -26 -78 -26q-29 0 -29 20z" />
<glyph unicode="&#xde;" horiz-adv-x="1368" d="M88 53l361 1342q12 47 55 47q23 0 37.5 -17t7.5 -45l-53 -206h340q265 0 395 -130q98 -98 98 -256q0 -242 -189.5 -377t-518.5 -135h-365l-66 -237q-12 -47 -57 -47q-24 0 -38 16.5t-7 44.5zM281 373h344q288 0 443 107t155 304q0 117 -74 191q-100 100 -315 100h-365z " />
<glyph unicode="&#xdf;" horiz-adv-x="1269" d="M66 49l260 975q59 223 178 342q143 143 340 143q166 0 274.5 -93.5t108.5 -235.5q0 -311 -434 -432q147 -38 236 -121.5t89 -214.5q0 -121 -83 -217t-223.5 -147.5t-311.5 -51.5q-21 0 -33 13t-12 32t12 31.5t33 13.5q131 6 230.5 34t159.5 72.5t90 100.5t30 121 q0 203 -318 276q-49 9 -49 53q0 20 11.5 34.5t29.5 19.5q222 56 328 150t106 229q0 106 -75 172.5t-207 66.5q-149 0 -257 -111.5t-161 -310.5l-256 -954q-12 -47 -56 -47q-23 0 -34.5 16t-5.5 41z" />
<glyph unicode="&#xe0;" horiz-adv-x="1169" d="M47 268q0 171 131.5 275t339.5 104q190 0 402 -59l8 28q14 54 14 105q0 119 -81 182.5t-234 63.5q-138 0 -265 -43q-16 -4 -26 -4q-19 0 -30 12.5t-11 32.5q0 35 39 47q146 49 301 49q191 0 298 -87t107 -239q0 -59 -20 -137l-150 -559q-12 -47 -55 -47q-23 0 -35 16 t-6 41l35 131q-172 -205 -420 -205q-90 0 -166 31.5t-126 100t-50 161.5zM154 281q0 -97 68.5 -155t185.5 -58q153 0 288.5 97t177.5 251l25 92q-192 49 -395 49q-156 0 -253 -77t-97 -199zM518 1434q0 15 26 31t54 16q43 0 57 -37l74 -189q6 -18 6 -24q0 -19 -26 -19 q-33 0 -52 25l-125 164q-14 17 -14 33z" />
<glyph unicode="&#xe1;" horiz-adv-x="1169" d="M47 268q0 171 131.5 275t339.5 104q190 0 402 -59l8 28q14 54 14 105q0 119 -81 182.5t-234 63.5q-138 0 -265 -43q-16 -4 -26 -4q-19 0 -30 12.5t-11 32.5q0 35 39 47q146 49 301 49q191 0 298 -87t107 -239q0 -59 -20 -137l-150 -559q-12 -47 -55 -47q-23 0 -35 16 t-6 41l35 131q-172 -205 -420 -205q-90 0 -166 31.5t-126 100t-50 161.5zM154 281q0 -97 68.5 -155t185.5 -58q153 0 288.5 97t177.5 251l25 92q-192 49 -395 49q-156 0 -253 -77t-97 -199zM694 1233q0 11 11 22l180 195q14 14 19.5 19t16.5 10.5t23 5.5q29 0 59.5 -18 t30.5 -33q0 -19 -22 -35l-211 -160q-36 -27 -78 -27q-29 0 -29 21z" />
<glyph unicode="&#xe2;" horiz-adv-x="1169" d="M47 268q0 171 131.5 275t339.5 104q190 0 402 -59l8 28q14 54 14 105q0 119 -81 182.5t-234 63.5q-138 0 -265 -43q-16 -4 -26 -4q-19 0 -30 12.5t-11 32.5q0 35 39 47q146 49 301 49q191 0 298 -87t107 -239q0 -59 -20 -137l-150 -559q-12 -47 -55 -47q-23 0 -35 16 t-6 41l35 131q-172 -205 -420 -205q-90 0 -166 31.5t-126 100t-50 161.5zM154 281q0 -97 68.5 -155t185.5 -58q153 0 288.5 97t177.5 251l25 92q-192 49 -395 49q-156 0 -253 -77t-97 -199zM506 1233q0 13 16 29l193 176q37 37 67 37h13q18 0 29 -8.5t22 -28.5l98 -178 q10 -20 10 -27q0 -8 -7.5 -14.5t-20.5 -6.5q-24 0 -38 5t-28 24l-90 117l-168 -119q-17 -11 -24.5 -15.5t-18.5 -8t-24 -3.5q-14 0 -21.5 6.5t-7.5 14.5z" />
<glyph unicode="&#xe3;" horiz-adv-x="1169" d="M47 268q0 171 131.5 275t339.5 104q190 0 402 -59l8 28q14 54 14 105q0 119 -81 182.5t-234 63.5q-138 0 -265 -43q-16 -4 -26 -4q-19 0 -30 12.5t-11 32.5q0 35 39 47q146 49 301 49q191 0 298 -87t107 -239q0 -59 -20 -137l-150 -559q-12 -47 -55 -47q-23 0 -35 16 t-6 41l35 131q-172 -205 -420 -205q-90 0 -166 31.5t-126 100t-50 161.5zM154 281q0 -97 68.5 -155t185.5 -58q153 0 288.5 97t177.5 251l25 92q-192 49 -395 49q-156 0 -253 -77t-97 -199zM442 1245q0 19 15 43q43 75 85 114.5t105 39.5q29 0 54 -10.5t40 -22.5t43 -39 q38 -37 56.5 -49t42.5 -12q28 0 51 22t55 76q18 31 41 31q17 0 30 -10t13 -27q0 -21 -14 -43q-43 -74 -85.5 -114t-105.5 -40q-29 0 -54 10.5t-40 22.5t-43 39t-39 36.5t-26.5 17t-32.5 7.5q-28 0 -51.5 -22.5t-55.5 -75.5q-18 -31 -41 -31q-17 0 -30 10t-13 27z" />
<glyph unicode="&#xe4;" horiz-adv-x="1169" d="M47 268q0 171 131.5 275t339.5 104q190 0 402 -59l8 28q14 54 14 105q0 119 -81 182.5t-234 63.5q-138 0 -265 -43q-16 -4 -26 -4q-19 0 -30 12.5t-11 32.5q0 35 39 47q146 49 301 49q191 0 298 -87t107 -239q0 -59 -20 -137l-150 -559q-12 -47 -55 -47q-23 0 -35 16 t-6 41l35 131q-172 -205 -420 -205q-90 0 -166 31.5t-126 100t-50 161.5zM154 281q0 -97 68.5 -155t185.5 -58q153 0 288.5 97t177.5 251l25 92q-192 49 -395 49q-156 0 -253 -77t-97 -199zM506 1274l18 67q16 56 76 56q31 0 48.5 -20t10.5 -48l-18 -67q-16 -56 -76 -56 q-31 0 -48 20t-11 48zM840 1274l18 67q16 56 76 56q31 0 48.5 -20t10.5 -48l-18 -67q-16 -56 -76 -56q-31 0 -48 20t-11 48z" />
<glyph unicode="&#xe5;" horiz-adv-x="1169" d="M47 268q0 171 131.5 275t339.5 104q190 0 402 -59l8 28q14 54 14 105q0 119 -81 182.5t-234 63.5q-138 0 -265 -43q-16 -4 -26 -4q-19 0 -30 12.5t-11 32.5q0 35 39 47q146 49 301 49q191 0 298 -87t107 -239q0 -59 -20 -137l-150 -559q-12 -47 -55 -47q-23 0 -35 16 t-6 41l35 131q-172 -205 -420 -205q-90 0 -166 31.5t-126 100t-50 161.5zM154 281q0 -97 68.5 -155t185.5 -58q153 0 288.5 97t177.5 251l25 92q-192 49 -395 49q-156 0 -253 -77t-97 -199zM573 1386q0 86 67.5 147.5t156.5 61.5q86 0 138 -47.5t52 -120.5q0 -86 -67 -147 t-156 -61q-86 0 -138.5 47t-52.5 120zM647 1389q0 -46 30.5 -75.5t88.5 -29.5q61 0 104 41t43 100q0 47 -30 76t-88 29q-61 0 -104.5 -41t-43.5 -100z" />
<glyph unicode="&#xe6;" horiz-adv-x="1976" d="M47 279q0 167 135 267.5t344 100.5q204 0 394 -59l8 28q14 54 14 105q0 119 -81 182.5t-234 63.5q-138 0 -265 -43q-16 -4 -26 -4q-19 0 -30 12.5t-11 32.5q0 35 39 47q145 49 301 49q165 0 268 -65t129 -183q86 116 206.5 186t254.5 70q126 0 217.5 -55.5t134.5 -144.5 t43 -199q0 -67 -14 -135q-10 -48 -62 -48h-811q-4 -46 -4 -69q0 -157 95.5 -252.5t250.5 -95.5q186 0 330 118q19 15 39 15q19 0 31 -12t12 -31q0 -24 -20 -41q-167 -144 -389 -144q-152 0 -258.5 69t-155.5 187q-112 -117 -246.5 -186.5t-275.5 -69.5q-159 0 -261 80 t-102 224zM154 291q0 -103 69.5 -163t194.5 -60q252 0 487 256q-8 41 -8 98q0 44 6 88q-164 47 -391 47q-156 0 -257 -75t-101 -191zM1020 578h758q8 36 8 86q0 135 -75 224t-220 89q-168 0 -296.5 -115t-174.5 -284z" />
<glyph unicode="&#xe7;" horiz-adv-x="1153" d="M102 426q0 168 84 316.5t226.5 237.5t304.5 89q133 0 229 -57.5t156 -149.5q14 -21 14 -41q0 -19 -13 -32t-32 -13q-31 0 -49 27q-56 83 -129 127.5t-182 44.5q-130 0 -246 -75.5t-185 -201t-69 -266.5q0 -86 29.5 -156t78.5 -114t112 -68t132 -24q165 0 314 127 q17 14 38 14q19 0 31 -13t12 -32q0 -21 -18 -39q-176 -152 -383 -152h-6l-184 -243q-20 -25 -43 -25q-24 0 -40 14.5t-16 32.5q0 21 21 45l174 187q-74 14 -138.5 50t-114.5 90.5t-79 132t-29 167.5z" />
<glyph unicode="&#xe8;" horiz-adv-x="1193" d="M102 414q0 121 47.5 239.5t127 210.5t193 148.5t237.5 56.5q126 0 217.5 -55.5t134.5 -144.5t43 -199q0 -62 -15 -135q-10 -48 -61 -48h-811q-4 -46 -4 -69q0 -157 95.5 -252.5t250.5 -95.5q185 0 330 118q19 15 39 15q19 0 31 -12t12 -31q0 -24 -21 -41 q-171 -144 -391 -144q-200 0 -327.5 123t-127.5 316zM233 578h758q8 36 8 86q0 135 -74.5 224t-219.5 89q-168 0 -297 -115t-175 -284zM563 1434q0 15 26 31t54 16q43 0 57 -37l74 -189q6 -18 6 -24q0 -19 -26 -19q-33 0 -52 25l-124 164q-15 18 -15 33z" />
<glyph unicode="&#xe9;" horiz-adv-x="1193" d="M102 414q0 121 47.5 239.5t127 210.5t193 148.5t237.5 56.5q126 0 217.5 -55.5t134.5 -144.5t43 -199q0 -62 -15 -135q-10 -48 -61 -48h-811q-4 -46 -4 -69q0 -157 95.5 -252.5t250.5 -95.5q185 0 330 118q19 15 39 15q19 0 31 -12t12 -31q0 -24 -21 -41 q-171 -144 -391 -144q-200 0 -327.5 123t-127.5 316zM233 578h758q8 36 8 86q0 135 -74.5 224t-219.5 89q-168 0 -297 -115t-175 -284zM739 1233q0 11 11 22l180 195q14 14 19.5 19t16.5 10.5t23 5.5q29 0 59.5 -18t30.5 -33q0 -19 -22 -35l-211 -160q-36 -27 -78 -27 q-29 0 -29 21z" />
<glyph unicode="&#xea;" horiz-adv-x="1193" d="M102 414q0 121 47.5 239.5t127 210.5t193 148.5t237.5 56.5q126 0 217.5 -55.5t134.5 -144.5t43 -199q0 -62 -15 -135q-10 -48 -61 -48h-811q-4 -46 -4 -69q0 -157 95.5 -252.5t250.5 -95.5q185 0 330 118q19 15 39 15q19 0 31 -12t12 -31q0 -24 -21 -41 q-171 -144 -391 -144q-200 0 -327.5 123t-127.5 316zM233 578h758q8 36 8 86q0 135 -74.5 224t-219.5 89q-168 0 -297 -115t-175 -284zM549 1233q0 13 16 29l193 176q37 37 67 37h13q18 0 29 -8.5t22 -28.5l98 -178q10 -20 10 -27q0 -8 -7.5 -14.5t-20.5 -6.5q-24 0 -38 5 t-28 24l-90 117l-168 -119q-17 -11 -24.5 -15.5t-18.5 -8t-24 -3.5q-14 0 -21.5 6.5t-7.5 14.5z" />
<glyph unicode="&#xeb;" horiz-adv-x="1193" d="M102 414q0 121 47.5 239.5t127 210.5t193 148.5t237.5 56.5q126 0 217.5 -55.5t134.5 -144.5t43 -199q0 -62 -15 -135q-10 -48 -61 -48h-811q-4 -46 -4 -69q0 -157 95.5 -252.5t250.5 -95.5q185 0 330 118q19 15 39 15q19 0 31 -12t12 -31q0 -24 -21 -41 q-171 -144 -391 -144q-200 0 -327.5 123t-127.5 316zM233 578h758q8 36 8 86q0 135 -74.5 224t-219.5 89q-168 0 -297 -115t-175 -284zM551 1274l18 67q16 56 76 56q31 0 49 -20t11 -48l-19 -67q-16 -56 -76 -56q-31 0 -48 20t-11 48zM885 1274l18 67q16 56 76 56 q31 0 48.5 -20t10.5 -48l-18 -67q-16 -56 -76 -56q-31 0 -48 20t-11 48z" />
<glyph unicode="&#xec;" horiz-adv-x="512" d="M80 49l256 957q12 47 55 47q23 0 35 -16.5t6 -41.5l-256 -956q-12 -47 -55 -47q-23 0 -35 16t-6 41zM231 1434q0 15 26 31t54 16q44 0 58 -37l73 -189q7 -21 7 -24q0 -19 -27 -19q-32 0 -51 25l-125 164q-15 18 -15 33z" />
<glyph unicode="&#xed;" horiz-adv-x="512" d="M80 49l256 957q12 47 55 47q23 0 35 -16.5t6 -41.5l-256 -956q-12 -47 -55 -47q-23 0 -35 16t-6 41zM408 1233q0 12 10 22l180 195q14 14 19.5 19t16.5 10.5t23 5.5q29 0 60 -18t31 -33q0 -19 -23 -35l-211 -160q-36 -27 -78 -27q-28 0 -28 21z" />
<glyph unicode="&#xee;" horiz-adv-x="512" d="M80 49l256 957q12 47 55 47q23 0 35 -16.5t6 -41.5l-256 -956q-12 -47 -55 -47q-23 0 -35 16t-6 41zM217 1233q0 13 16 29l193 176q37 37 68 37h12q18 0 29 -8.5t22 -28.5l98 -178q11 -22 11 -27q0 -8 -8 -14.5t-21 -6.5q-24 0 -38 5t-28 24l-90 117l-168 -119 q-40 -27 -67 -27q-14 0 -21.5 6.5t-7.5 14.5z" />
<glyph unicode="&#xef;" horiz-adv-x="512" d="M80 49l256 957q12 47 55 47q23 0 35 -16.5t6 -41.5l-256 -956q-12 -47 -55 -47q-23 0 -35 16t-6 41zM221 1274l19 67q16 56 75 56q31 0 49 -20t11 -48l-19 -67q-16 -56 -75 -56q-31 0 -48.5 20t-11.5 48zM555 1274l18 67q16 56 76 56q31 0 49 -20t11 -48l-19 -67 q-16 -56 -76 -56q-31 0 -48 20t-11 48z" />
<glyph unicode="&#xf0;" horiz-adv-x="1261" d="M96 414q0 157 81.5 291.5t213.5 211t279 76.5q186 0 315 -108l-170 399l-287 -127q-12 -6 -28 -6q-20 0 -31.5 13t-11.5 32q0 32 37 47l286 125l-20 49q-8 20 -8 37q0 19 16.5 34t40.5 15q38 0 53 -43l19 -47l194 86q12 6 29 6q20 0 31.5 -13t11.5 -32q0 -32 -37 -47 l-197 -86l152 -377q53 -131 74.5 -217t21.5 -172q0 -109 -45.5 -214.5t-123.5 -187.5t-193 -132t-244 -50q-197 0 -328 126t-131 311zM205 420q0 -159 100.5 -253.5t259.5 -94.5q130 0 242.5 65t179 177.5t66.5 242.5q0 146 -103 246t-278 100q-93 0 -179.5 -39 t-149.5 -104.5t-100.5 -154.5t-37.5 -185z" />
<glyph unicode="&#xf1;" horiz-adv-x="1251" d="M66 49l253 957q12 47 56 47q23 0 35 -16.5t6 -41.5l-37 -145q87 105 180 162t215 57q155 0 248.5 -90.5t93.5 -241.5q0 -57 -22 -147l-146 -551q-12 -47 -55 -47q-23 0 -35 16t-6 41l145 549q17 66 17 129q0 117 -72 184.5t-197 67.5q-136 0 -263.5 -111t-172.5 -278 l-147 -551q-12 -47 -56 -47q-23 0 -34.5 16t-5.5 41zM522 1245q0 19 15 43q43 75 85 114.5t105 39.5q29 0 54 -10.5t40 -22.5t43 -39q38 -37 56.5 -49t42.5 -12q28 0 51 22t55 76q18 31 41 31q17 0 30 -10t13 -27q0 -21 -14 -43q-43 -74 -85.5 -114t-105.5 -40 q-29 0 -54 10.5t-40 22.5t-43 39t-39 36.5t-26.5 17t-32.5 7.5q-28 0 -51.5 -22.5t-55.5 -75.5q-18 -31 -41 -31q-17 0 -30 10t-13 27z" />
<glyph unicode="&#xf2;" horiz-adv-x="1296" d="M104 438q0 122 50.5 237.5t134 202t199 139t237.5 52.5q206 0 335.5 -130.5t129.5 -332.5q0 -125 -52 -242t-137 -201.5t-199 -136t-233 -51.5q-206 0 -335.5 130.5t-129.5 332.5zM213 442q0 -174 100.5 -273t266.5 -99q126 0 241.5 72t187.5 195.5t72 264.5 q0 174 -100.5 273.5t-265.5 99.5q-129 0 -245.5 -74.5t-186.5 -198t-70 -260.5zM610 1434q0 15 26 31t54 16q44 0 58 -37l73 -189q6 -18 6 -24q0 -19 -26 -19q-32 0 -51 25l-125 164q-15 18 -15 33z" />
<glyph unicode="&#xf3;" horiz-adv-x="1296" d="M104 438q0 122 50.5 237.5t134 202t199 139t237.5 52.5q206 0 335.5 -130.5t129.5 -332.5q0 -125 -52 -242t-137 -201.5t-199 -136t-233 -51.5q-206 0 -335.5 130.5t-129.5 332.5zM213 442q0 -174 100.5 -273t266.5 -99q126 0 241.5 72t187.5 195.5t72 264.5 q0 174 -100.5 273.5t-265.5 99.5q-129 0 -245.5 -74.5t-186.5 -198t-70 -260.5zM786 1233q0 11 11 22l180 195q14 14 19.5 19t16.5 10.5t23 5.5q29 0 59.5 -18t30.5 -33q0 -19 -22 -35l-211 -160q-36 -27 -78 -27q-29 0 -29 21z" />
<glyph unicode="&#xf4;" horiz-adv-x="1296" d="M104 438q0 122 50.5 237.5t134 202t199 139t237.5 52.5q206 0 335.5 -130.5t129.5 -332.5q0 -125 -52 -242t-137 -201.5t-199 -136t-233 -51.5q-206 0 -335.5 130.5t-129.5 332.5zM213 442q0 -174 100.5 -273t266.5 -99q126 0 241.5 72t187.5 195.5t72 264.5 q0 174 -100.5 273.5t-265.5 99.5q-129 0 -245.5 -74.5t-186.5 -198t-70 -260.5zM596 1233q0 13 16 29l193 176q37 37 67 37h13q18 0 29 -8.5t22 -28.5l98 -178q10 -20 10 -27q0 -8 -7.5 -14.5t-20.5 -6.5q-24 0 -38 5t-28 24l-90 117l-168 -119q-17 -11 -24.5 -15.5 t-18.5 -8t-24 -3.5q-14 0 -21.5 6.5t-7.5 14.5z" />
<glyph unicode="&#xf5;" horiz-adv-x="1296" d="M104 438q0 122 50.5 237.5t134 202t199 139t237.5 52.5q206 0 335.5 -130.5t129.5 -332.5q0 -125 -52 -242t-137 -201.5t-199 -136t-233 -51.5q-206 0 -335.5 130.5t-129.5 332.5zM213 442q0 -174 100.5 -273t266.5 -99q126 0 241.5 72t187.5 195.5t72 264.5 q0 174 -100.5 273.5t-265.5 99.5q-129 0 -245.5 -74.5t-186.5 -198t-70 -260.5zM535 1245q0 21 14 43q43 75 85 114.5t105 39.5q29 0 54 -10t40.5 -23t43.5 -39q28 -27 39 -36.5t26.5 -17t32.5 -7.5q28 0 51 22t55 76q18 31 41 31q17 0 30 -10t13 -27q0 -21 -14 -43 q-43 -75 -85 -114.5t-105 -39.5q-29 0 -54 10t-40.5 23t-43.5 39q-28 27 -39 36.5t-26.5 17t-32.5 7.5q-28 0 -51.5 -22.5t-55.5 -75.5q-18 -31 -40 -31q-17 0 -30 10t-13 27z" />
<glyph unicode="&#xf6;" horiz-adv-x="1296" d="M104 438q0 122 50.5 237.5t134 202t199 139t237.5 52.5q206 0 335.5 -130.5t129.5 -332.5q0 -125 -52 -242t-137 -201.5t-199 -136t-233 -51.5q-206 0 -335.5 130.5t-129.5 332.5zM213 442q0 -174 100.5 -273t266.5 -99q126 0 241.5 72t187.5 195.5t72 264.5 q0 174 -100.5 273.5t-265.5 99.5q-129 0 -245.5 -74.5t-186.5 -198t-70 -260.5zM598 1274l18 67q16 56 76 56q31 0 49 -20t11 -48l-19 -67q-16 -56 -76 -56q-31 0 -48 20t-11 48zM932 1274l18 67q16 56 76 56q31 0 48.5 -20t10.5 -48l-18 -67q-16 -56 -76 -56q-31 0 -48 20 t-11 48z" />
<glyph unicode="&#xf7;" horiz-adv-x="1269" d="M186 721q0 -20 15 -34.5t35 -14.5h909q20 0 34.5 14.5t14.5 34.5t-14.5 34.5t-34.5 14.5h-909q-20 0 -35 -14.5t-15 -34.5zM496 305l16 57q9 30 33 47t57 17q36 0 56.5 -23t13.5 -55l-17 -57q-9 -30 -33 -47t-57 -17q-35 0 -55.5 23t-13.5 55zM707 1094l16 57 q9 29 32.5 46t57.5 17q36 0 56.5 -22.5t13.5 -54.5l-17 -58q-9 -29 -32.5 -46t-57.5 -17q-35 0 -55.5 23t-13.5 55z" />
<glyph unicode="&#xf8;" horiz-adv-x="1296" d="M-6 18q0 24 22 43l154 125q-66 111 -66 252q0 122 50.5 237.5t134 202t199 139t237.5 52.5q215 0 346 -141l148 119q27 20 47 20q17 0 28 -10t11 -27q0 -23 -23 -43l-158 -129q66 -111 66 -252q0 -125 -52 -242t-137 -201.5t-199 -136t-233 -51.5q-212 0 -346 144 l-143 -117q-27 -20 -47 -20q-18 0 -28.5 9.5t-10.5 26.5zM213 442q0 -105 39 -188l743 610q-102 111 -280 111q-129 0 -245.5 -74.5t-186.5 -198t-70 -260.5zM299 180q96 -110 281 -110q126 0 241.5 72t187.5 195.5t72 264.5q0 106 -39 189z" />
<glyph unicode="&#xf9;" horiz-adv-x="1247" d="M131 307q0 54 23 148l145 551q12 47 55 47q23 0 35 -16.5t6 -41.5l-145 -549q-17 -66 -17 -129q0 -117 72 -184t197 -67q136 0 263.5 111t172.5 278l147 551q12 47 56 47q23 0 35 -16.5t6 -41.5l-254 -956q-12 -47 -56 -47q-23 0 -35 16t-6 41l37 146 q-87 -105 -180 -162.5t-215 -57.5q-155 0 -248.5 90.5t-93.5 241.5zM573 1434q0 15 26 31t54 16q44 0 58 -37l73 -189q7 -21 7 -24q0 -19 -27 -19q-32 0 -51 25l-125 164q-15 18 -15 33z" />
<glyph unicode="&#xfa;" horiz-adv-x="1247" d="M131 307q0 54 23 148l145 551q12 47 55 47q23 0 35 -16.5t6 -41.5l-145 -549q-17 -66 -17 -129q0 -117 72 -184t197 -67q136 0 263.5 111t172.5 278l147 551q12 47 56 47q23 0 35 -16.5t6 -41.5l-254 -956q-12 -47 -56 -47q-23 0 -35 16t-6 41l37 146 q-87 -105 -180 -162.5t-215 -57.5q-155 0 -248.5 90.5t-93.5 241.5zM750 1233q0 12 10 22l180 195q14 14 19.5 19t16.5 10.5t23 5.5q29 0 60 -18t31 -33q0 -19 -23 -35l-211 -160q-36 -27 -78 -27q-28 0 -28 21z" />
<glyph unicode="&#xfb;" horiz-adv-x="1247" d="M131 307q0 54 23 148l145 551q12 47 55 47q23 0 35 -16.5t6 -41.5l-145 -549q-17 -66 -17 -129q0 -117 72 -184t197 -67q136 0 263.5 111t172.5 278l147 551q12 47 56 47q23 0 35 -16.5t6 -41.5l-254 -956q-12 -47 -56 -47q-23 0 -35 16t-6 41l37 146 q-87 -105 -180 -162.5t-215 -57.5q-155 0 -248.5 90.5t-93.5 241.5zM561 1233q0 12 17 29l192 176q37 37 68 37h12q18 0 29 -8.5t22 -28.5l98 -178q11 -22 11 -27q0 -8 -8 -14.5t-21 -6.5q-24 0 -38 5t-28 24l-90 117l-168 -119q-17 -11 -24.5 -15.5t-18.5 -8t-24 -3.5 q-14 0 -21.5 6.5t-7.5 14.5z" />
<glyph unicode="&#xfc;" horiz-adv-x="1247" d="M131 307q0 54 23 148l145 551q12 47 55 47q23 0 35 -16.5t6 -41.5l-145 -549q-17 -66 -17 -129q0 -117 72 -184t197 -67q136 0 263.5 111t172.5 278l147 551q12 47 56 47q23 0 35 -16.5t6 -41.5l-254 -956q-12 -47 -56 -47q-23 0 -35 16t-6 41l37 146 q-87 -105 -180 -162.5t-215 -57.5q-155 0 -248.5 90.5t-93.5 241.5zM561 1274l19 67q16 56 75 56q31 0 49 -20t11 -48l-19 -67q-16 -56 -75 -56q-31 0 -48.5 20t-11.5 48zM895 1274l18 67q16 56 76 56q31 0 49 -20t11 -48l-19 -67q-16 -56 -76 -56q-31 0 -48 20t-11 48z" />
<glyph unicode="&#xfd;" horiz-adv-x="1163" d="M-174 -240q0 20 13.5 33.5t33.5 13.5q17 0 33 -8q80 -39 147 -39q82 0 161 56t173 190l-197 959q-4 20 -4 36q0 22 13.5 37t36.5 15q43 0 53 -54l174 -888l606 901q26 41 59 41q21 0 33.5 -12t12.5 -31q0 -20 -13 -39l-692 -1008q-112 -161 -212.5 -229t-215.5 -68 q-96 0 -186 49q-29 15 -29 45zM674 1233q0 12 10 22l180 195q35 35 60 35q29 0 59.5 -18t30.5 -33q0 -19 -23 -35l-211 -160q-36 -27 -78 -27q-28 0 -28 21z" />
<glyph unicode="&#xfe;" horiz-adv-x="1339" d="M-23 -279l465 1735q12 47 56 47q23 0 35 -16t6 -41l-164 -606q191 229 434 229q182 0 301 -123.5t119 -316.5q0 -136 -48.5 -258.5t-129.5 -209t-189 -137.5t-223 -51q-162 0 -266.5 83.5t-149.5 209.5l-149 -555q-12 -47 -56 -47q-23 0 -35 16t-6 41zM274 432 q0 -154 101 -259t260 -105q138 0 250 76.5t173.5 202t61.5 269.5q0 161 -90 260t-233 99q-95 0 -191 -46t-168.5 -120.5t-118 -174.5t-45.5 -202z" />
<glyph unicode="&#xff;" horiz-adv-x="1163" d="M-174 -240q0 20 13.5 33.5t33.5 13.5q17 0 33 -8q80 -39 147 -39q82 0 161 56t173 190l-197 959q-4 20 -4 36q0 22 13.5 37t36.5 15q43 0 53 -54l174 -888l606 901q26 41 59 41q21 0 33.5 -12t12.5 -31q0 -20 -13 -39l-692 -1008q-112 -161 -212.5 -229t-215.5 -68 q-96 0 -186 49q-29 15 -29 45zM485 1274l19 67q16 56 76 56q31 0 48.5 -20t10.5 -48l-18 -67q-16 -56 -76 -56q-31 0 -48.5 20t-11.5 48zM819 1274l19 67q16 56 75 56q31 0 49 -20t11 -48l-19 -67q-16 -56 -75 -56q-31 0 -48.5 20t-11.5 48z" />
<glyph unicode="&#x152;" horiz-adv-x="2363" d="M188 602q0 163 58 305t166 250q131 131 320.5 204t408.5 73h1274q20 0 34.5 -15t14.5 -35t-14.5 -34.5t-34.5 -14.5h-852l-152 -563h733q20 0 34.5 -14.5t14.5 -34.5t-14.5 -34.5t-34.5 -14.5h-760l-153 -576h835q20 0 35 -14.5t15 -34.5t-15 -34.5t-35 -14.5h-1163 q-171 0 -316.5 49t-240.5 144q-158 158 -158 409zM299 610q0 -217 133 -350q162 -162 477 -162h215l332 1237h-330q-389 0 -634 -245q-193 -193 -193 -480z" />
<glyph unicode="&#x153;" horiz-adv-x="2142" d="M104 438q0 122 50.5 237.5t134 202t199 139t237.5 52.5q172 0 284.5 -94.5t145.5 -239.5q37 69 84.5 126t109 105.5t141 75.5t169.5 27q126 0 217.5 -55.5t134.5 -144.5t43 -199q0 -72 -16 -142q-3 -16 -17.5 -28.5t-33.5 -12.5h-820q-4 -46 -4 -69q0 -157 95.5 -252.5 t250.5 -95.5q96 0 174.5 28t155.5 90q19 15 39 15q19 0 31 -12t12 -31q0 -24 -20 -41q-168 -144 -385 -144q-166 0 -283 87t-150 231q-84 -140 -217 -229t-303 -89q-199 0 -329 131t-130 332zM213 442q0 -174 100.5 -273t266.5 -99q125 0 241 71.5t188 193t72 257.5 q0 181 -100 282t-266 101q-129 0 -245.5 -74.5t-186.5 -198t-70 -260.5zM1186 578h758q8 36 8 86q0 135 -75 224t-220 89q-168 0 -296.5 -115t-174.5 -284z" />
<glyph unicode="&#x178;" horiz-adv-x="1368" d="M287 1391q0 22 14 36.5t37 14.5q36 0 55 -47l314 -731l725 749q29 29 57 29q19 0 33 -12.5t14 -32.5q0 -24 -25 -49l-778 -793l-137 -516q-12 -47 -57 -47q-24 0 -38 16.5t-7 44.5l141 529l-340 772q-8 19 -8 37zM711 1622l18 68q16 55 76 55q31 0 48.5 -20t10.5 -48 l-18 -67q-16 -56 -76 -56q-31 0 -48 20t-11 48zM1044 1622l19 68q16 55 76 55q31 0 48.5 -20t10.5 -48l-18 -67q-16 -56 -76 -56q-31 0 -48.5 20t-11.5 48z" />
<glyph unicode="&#x2c6;" d="M485 1233q0 12 17 29l192 176q37 37 68 37h12q18 0 29 -8.5t22 -28.5l99 -178q10 -20 10 -27q0 -8 -8 -14.5t-21 -6.5q-23 0 -37 5t-28 24l-90 117l-168 -119q-40 -27 -68 -27q-14 0 -21.5 6.5t-7.5 14.5z" />
<glyph unicode="&#x2dc;" d="M408 1245q0 21 14 43q43 75 85 114.5t105 39.5q29 0 54 -10t40.5 -23t43.5 -39q28 -27 39 -36.5t26.5 -17t32.5 -7.5q28 0 51 22t55 76q18 31 41 31q17 0 30 -10t13 -27q0 -21 -14 -43q-43 -75 -85 -114.5t-105 -39.5q-29 0 -54 10t-40.5 23t-43.5 39q-28 27 -39 36.5 t-26.5 17t-32.5 7.5q-28 0 -51 -22t-55 -76q-18 -31 -41 -31q-17 0 -30 10t-13 27z" />
<glyph unicode="&#x2000;" horiz-adv-x="926" />
<glyph unicode="&#x2001;" horiz-adv-x="1853" />
<glyph unicode="&#x2002;" horiz-adv-x="926" />
<glyph unicode="&#x2003;" horiz-adv-x="1853" />
<glyph unicode="&#x2004;" horiz-adv-x="617" />
<glyph unicode="&#x2005;" horiz-adv-x="463" />
<glyph unicode="&#x2006;" horiz-adv-x="308" />
<glyph unicode="&#x2007;" horiz-adv-x="308" />
<glyph unicode="&#x2008;" horiz-adv-x="231" />
<glyph unicode="&#x2009;" horiz-adv-x="370" />
<glyph unicode="&#x200a;" horiz-adv-x="102" />
<glyph unicode="&#x2010;" horiz-adv-x="837" d="M158 608q0 23 17 40.5t40 17.5h453q23 0 40 -17.5t17 -40.5t-17 -40t-40 -17h-453q-23 0 -40 17t-17 40z" />
<glyph unicode="&#x2011;" horiz-adv-x="837" d="M158 608q0 23 17 40.5t40 17.5h453q23 0 40 -17.5t17 -40.5t-17 -40t-40 -17h-453q-23 0 -40 17t-17 40z" />
<glyph unicode="&#x2012;" horiz-adv-x="837" d="M158 608q0 23 17 40.5t40 17.5h453q23 0 40 -17.5t17 -40.5t-17 -40t-40 -17h-453q-23 0 -40 17t-17 40z" />
<glyph unicode="&#x2013;" horiz-adv-x="1081" d="M158 608q0 22 15.5 38t37.5 16h704q22 0 38 -16t16 -38t-16 -37.5t-38 -15.5h-704q-22 0 -37.5 15.5t-15.5 37.5z" />
<glyph unicode="&#x2014;" horiz-adv-x="1839" d="M158 608q0 22 15.5 38t37.5 16h1462q22 0 37.5 -16t15.5 -38t-15.5 -37.5t-37.5 -15.5h-1462q-22 0 -37.5 15.5t-15.5 37.5z" />
<glyph unicode="&#x2018;" horiz-adv-x="473" d="M317 1110l25 92q28 104 82 158q49 49 131 76q17 6 28 -1.5t11 -21.5q0 -18 -21 -27q-66 -28 -99.5 -65t-45.5 -96q20 -2 33 -18.5t6 -43.5l-18 -67q-16 -54 -74 -54q-30 0 -47.5 20.5t-10.5 47.5z" />
<glyph unicode="&#x2019;" horiz-adv-x="473" d="M246 1071q0 18 20 27q66 28 100 65.5t46 96.5q-20 2 -33 18t-6 43l18 68q16 53 74 53q30 0 47 -20.5t10 -47.5l-24 -92q-28 -104 -82 -158q-48 -48 -131 -75q-17 -6 -28 1t-11 21z" />
<glyph unicode="&#x201a;" horiz-adv-x="473" d="M-82 -188q0 17 21 26q65 28 99 65.5t46 96.5q-20 2 -33 18t-6 43l18 68q16 53 74 53q30 0 47.5 -20t10.5 -47l-25 -92q-28 -104 -82 -158q-49 -49 -131 -76q-17 -6 -28 1.5t-11 21.5z" />
<glyph unicode="&#x201c;" horiz-adv-x="841" d="M315 1110l25 92q28 104 82 158q49 49 131 76q17 6 28 -1.5t11 -21.5q0 -18 -21 -27q-66 -28 -99.5 -65t-45.5 -96q20 -2 33 -18.5t6 -43.5l-19 -67q-16 -54 -73 -54q-30 0 -47.5 20.5t-10.5 47.5zM684 1110l25 92q28 104 82 158q49 49 131 76q17 6 28 -1.5t11 -21.5 q0 -18 -21 -27q-66 -28 -99.5 -65t-45.5 -96q20 -2 33 -18.5t6 -43.5l-19 -67q-16 -54 -74 -54q-30 0 -47 20.5t-10 47.5z" />
<glyph unicode="&#x201d;" horiz-adv-x="841" d="M244 1071q0 18 20 27q66 28 100 65.5t46 96.5q-20 2 -33 18t-6 43l18 68q16 53 74 53q30 0 47 -20.5t10 -47.5l-24 -92q-28 -104 -82 -158q-48 -48 -131 -75q-17 -6 -28 1t-11 21zM612 1071q0 18 21 27q65 28 99 65.5t46 96.5q-20 2 -33 18t-6 43l19 68q16 53 73 53 q30 0 47.5 -20.5t10.5 -47.5l-25 -92q-28 -104 -82 -158q-48 -48 -131 -75q-17 -6 -28 1t-11 21z" />
<glyph unicode="&#x201e;" horiz-adv-x="843" d="M-82 -188q0 17 21 26q65 28 99 65.5t46 96.5q-20 2 -33 18t-6 43l18 68q16 53 74 53q30 0 47.5 -20t10.5 -47l-25 -92q-28 -104 -82 -158q-49 -49 -131 -76q-17 -6 -28 1.5t-11 21.5zM287 -188q0 17 20 26q66 28 100 65.5t46 96.5q-20 2 -33 18t-6 43l18 68q16 53 74 53 q30 0 47 -20t10 -47l-24 -92q-28 -104 -82 -158q-49 -49 -131 -76q-17 -6 -28 1.5t-11 21.5z" />
<glyph unicode="&#x2022;" horiz-adv-x="962" d="M260 678q0 125 87.5 217t205.5 92q95 0 155 -61t60 -162q0 -125 -87.5 -217t-205.5 -92q-95 0 -155 61t-60 162z" />
<glyph unicode="&#x2026;" horiz-adv-x="1398" d="M43 53l20 76q16 53 74 53q29 0 46.5 -18.5t11.5 -44.5l-21 -78q-12 -49 -74 -49q-30 0 -46.5 17.5t-10.5 43.5zM506 53l20 76q16 53 74 53q29 0 46 -18.5t11 -44.5l-20 -78q-12 -49 -74 -49q-30 0 -46.5 17.5t-10.5 43.5zM969 53l20 76q16 53 74 53q29 0 46 -18.5 t11 -44.5l-20 -78q-12 -49 -74 -49q-30 0 -46.5 17.5t-10.5 43.5z" />
<glyph unicode="&#x202f;" horiz-adv-x="370" />
<glyph unicode="&#x2039;" horiz-adv-x="636" d="M96 516q0 14 15 29l391 377q32 32 55 32q20 0 31.5 -12.5t11.5 -32.5q0 -21 -18 -39l-363 -362l154 -340q8 -19 8 -35q0 -19 -13.5 -32t-33.5 -13q-32 0 -47 35l-181 362q-10 20 -10 31z" />
<glyph unicode="&#x203a;" horiz-adv-x="636" d="M35 133q0 21 18 39l363 363l-154 339q-8 19 -8 35q0 19 13.5 32t33.5 13q32 0 47 -34l180 -363q11 -22 11 -31q0 -13 -15 -28l-391 -377q-33 -33 -55 -33q-20 0 -31.5 12.5t-11.5 32.5z" />
<glyph unicode="&#x205f;" horiz-adv-x="463" />
<glyph unicode="&#x20ac;" horiz-adv-x="1400" d="M82 551q0 20 14.5 34.5t34.5 14.5h135q6 134 43 252h-86q-20 0 -34.5 14.5t-14.5 34.5t14.5 34.5t34.5 14.5h121q91 227 267.5 367.5t398.5 140.5q154 0 262.5 -75t167.5 -203q10 -23 10 -41q0 -22 -14 -35.5t-37 -13.5q-31 0 -45 32q-32 70 -73.5 120t-116.5 85t-173 35 q-169 0 -310.5 -113t-223.5 -299h561q20 0 34.5 -14.5t14.5 -34.5t-14.5 -34.5t-34.5 -14.5h-598q-39 -125 -45 -252h551q20 0 34.5 -14.5t14.5 -34.5t-14.5 -34.5t-34.5 -14.5h-551q9 -194 111.5 -312t277.5 -118q117 0 209 43t182 135q20 20 45 20q17 0 30 -12t13 -29 q0 -25 -24 -49q-98 -100 -204.5 -152.5t-252.5 -52.5q-211 0 -349.5 142.5t-148.5 384.5h-133q-20 0 -34.5 14.5t-14.5 34.5z" />
<glyph unicode="&#x2122;" horiz-adv-x="1413" d="M270 1399q0 13 11 24t24 11h432q14 0 24.5 -10t10.5 -23q0 -15 -10.5 -26t-24.5 -11h-190l-154 -539q-10 -30 -39 -30q-16 0 -25 12t-3 33l149 524h-170q-14 0 -24.5 10t-10.5 25zM748 840l159 557q10 37 39 37h2q26 0 39 -33l141 -357l334 365q25 25 49 25h2 q20 0 28.5 -13.5t2.5 -36.5l-160 -559q-10 -30 -38 -30q-16 0 -25.5 12t-3.5 33l131 452l-297 -321q-19 -23 -41 -23t-33 25l-127 319l-135 -467q-10 -30 -39 -30q-16 0 -25 12t-3 33z" />
<glyph unicode="&#x25fc;" horiz-adv-x="1054" d="M0 0v1055h1055v-1055h-1055z" />
<glyph unicode="&#xfb01;" horiz-adv-x="1253" d="M127 49l242 903h-99q-20 0 -33.5 13.5t-13.5 33.5q0 19 14 32t33 13h123l41 152q79 299 334 299q87 0 168 -31q41 -16 41 -51q0 -24 -19 -37t-47 -2q-77 31 -147 31q-178 0 -236 -231l-34 -130h323q20 0 33.5 -13.5t13.5 -33.5q0 -19 -14 -32t-33 -13h-348l-246 -913 q-12 -47 -55 -47q-23 0 -35 16t-6 41zM821 49l256 957q12 47 56 47q23 0 35 -16.5t6 -41.5l-256 -956q-12 -47 -56 -47q-23 0 -35 16t-6 41zM1161 1364l15 53q12 47 69 47q28 0 43.5 -16t9.5 -41l-14 -53q-12 -47 -70 -47q-28 0 -43.5 16t-9.5 41z" />
<glyph unicode="&#xfb02;" horiz-adv-x="1253" d="M127 49l242 903h-99q-20 0 -33.5 13.5t-13.5 33.5q0 19 14 32t33 13h123l41 152q79 299 334 299q87 0 168 -31q41 -16 41 -51q0 -24 -19 -37t-47 -2q-77 31 -147 31q-178 0 -236 -231l-34 -130h323q20 0 33.5 -13.5t13.5 -33.5q0 -19 -14 -32t-33 -13h-348l-246 -913 q-12 -47 -55 -47q-23 0 -35 16t-6 41zM821 49l377 1407q12 47 55 47q23 0 35 -16t6 -41l-376 -1407q-12 -47 -56 -47q-23 0 -35 16t-6 41z" />
<glyph unicode="&#xfb03;" horiz-adv-x="1994" d="M127 49l242 903h-99q-20 0 -33.5 13.5t-13.5 33.5q0 19 14 32t33 13h123l41 152q79 299 334 299q87 0 168 -31q41 -16 41 -51q0 -24 -19 -37t-47 -2q-77 31 -147 31q-178 0 -236 -231l-34 -130h323q20 0 33.5 -13.5t13.5 -33.5q0 -19 -14 -32t-33 -13h-348l-246 -913 q-12 -47 -55 -47q-23 0 -35 16t-6 41zM868 49l242 903h-98q-20 0 -33.5 13.5t-13.5 33.5q0 19 14 32t33 13h123l41 152q79 299 333 299q87 0 168 -31q41 -16 41 -51q0 -24 -18.5 -37t-46.5 -2q-77 31 -148 31q-177 0 -235 -231l-35 -130h324q20 0 33.5 -13.5t13.5 -33.5 q0 -19 -14 -32t-33 -13h-349l-245 -913q-12 -47 -56 -47q-23 0 -35 16t-6 41zM1563 49l256 957q12 47 55 47q23 0 35 -16.5t6 -41.5l-256 -956q-12 -47 -55 -47q-23 0 -35 16t-6 41zM1903 1364l14 53q12 47 70 47q28 0 43.5 -16t9.5 -41l-15 -53q-12 -47 -69 -47 q-28 0 -43.5 16t-9.5 41z" />
<glyph unicode="&#xfb04;" horiz-adv-x="1994" d="M127 49l242 903h-99q-20 0 -33.5 13.5t-13.5 33.5q0 19 14 32t33 13h123l41 152q79 299 334 299q87 0 168 -31q41 -16 41 -51q0 -24 -19 -37t-47 -2q-77 31 -147 31q-178 0 -236 -231l-34 -130h323q20 0 33.5 -13.5t13.5 -33.5q0 -19 -14 -32t-33 -13h-348l-246 -913 q-12 -47 -55 -47q-23 0 -35 16t-6 41zM868 49l242 903h-98q-20 0 -33.5 13.5t-13.5 33.5q0 19 14 32t33 13h123l41 152q79 299 333 299q87 0 168 -31q41 -16 41 -51q0 -24 -18.5 -37t-46.5 -2q-77 31 -148 31q-177 0 -235 -231l-35 -130h324q20 0 33.5 -13.5t13.5 -33.5 q0 -19 -14 -32t-33 -13h-349l-245 -913q-12 -47 -56 -47q-23 0 -35 16t-6 41zM1563 49l376 1407q12 47 56 47q23 0 35 -16t6 -41l-377 -1407q-12 -47 -55 -47q-23 0 -35 16t-6 41z" />
</font>
</defs>
</svg>
