<?xml version="1.0" standalone="no"?>
<!DOCTYPE svg PUBLIC "-//W3C//DTD SVG 1.1//EN" "http://www.w3.org/Graphics/SVG/1.1/DTD/svg11.dtd" >
<svg xmlns="http://www.w3.org/2000/svg" xmlns:xlink="http://www.w3.org/1999/xlink" version="1.1">
<metadata></metadata>
<defs>
<font id="gotham_roundedbold_italic" horiz-adv-x="1024" >
<font-face units-per-em="2048" ascent="1638" descent="-410" />
<missing-glyph horiz-adv-x="614" />
<glyph horiz-adv-x="0" />
<glyph horiz-adv-x="682" />
<glyph unicode=" "  horiz-adv-x="614" />
<glyph unicode="&#x09;" horiz-adv-x="614" />
<glyph unicode="&#xa0;" horiz-adv-x="614" />
<glyph unicode="!" horiz-adv-x="665" d="M49 158l2 12q14 76 69 123t132 47q79 0 122.5 -49t31.5 -121l-3 -12q-12 -74 -67.5 -122t-132.5 -48q-79 0 -122.5 49t-31.5 121zM244 575l123 760q8 45 37 75t69 30h186q41 0 58 -31.5t2 -73.5l-293 -782q-29 -78 -102 -78q-42 0 -64.5 27t-15.5 73z" />
<glyph unicode="&#x22;" horiz-adv-x="1081" d="M225 862l115 438q16 61 57 101.5t101 40.5h92q44 0 64 -24t16.5 -57.5t-23.5 -68.5l-248 -446q-44 -78 -110 -78q-38 0 -56.5 27t-7.5 67zM721 862l115 438q16 62 56.5 102t100.5 40h92q44 0 64 -24t17 -57.5t-23 -68.5l-248 -446q-44 -78 -111 -78q-38 0 -56 27t-7 67z " />
<glyph unicode="#" horiz-adv-x="1415" d="M45 438q0 54 38.5 92.5t92.5 38.5h115l104 303h-47q-54 0 -92.5 39t-38.5 93t38.5 92.5t92.5 38.5h139l72 202q17 48 58 78.5t90 30.5q61 0 95.5 -43t14.5 -98l-59 -170h276l72 202q17 48 59.5 78.5t91.5 30.5q61 0 94 -43t13 -98l-59 -170h24q54 0 92.5 -38.5 t38.5 -92.5t-38.5 -93t-92.5 -39h-117l-104 -303h47q54 0 92.5 -38.5t38.5 -92.5t-38.5 -92.5t-92.5 -38.5h-139l-74 -211q-15 -46 -56.5 -77t-90.5 -31q-61 0 -96 42.5t-15 98.5l61 178h-276l-74 -211q-15 -43 -55 -75.5t-92 -32.5q-62 0 -97 40.5t-14 100.5l62 178h-23 q-54 0 -92.5 38.5t-38.5 92.5zM561 569h277l104 303h-276z" />
<glyph unicode="$" horiz-adv-x="1302" d="M27 285q0 63 43.5 106t109.5 43q52 0 103 -41q90 -75 202 -106l97 317q-64 24 -110 46t-92 54.5t-74.5 70.5t-46 90.5t-17.5 117.5q0 127 74.5 230.5t204 162t286.5 58.5h16l8 24q37 107 119 107q55 0 79.5 -37t6.5 -101l-6 -20q54 -12 113.5 -41.5t97.5 -56.5 q76 -51 76 -125q0 -63 -45.5 -105.5t-110.5 -42.5q-48 0 -104 39q-53 38 -113 62l-92 -306q79 -30 135.5 -61.5t102.5 -76t69 -105t23 -137.5q0 -132 -77 -235.5t-208 -159.5t-291 -56h-2l-33 -106q-37 -107 -118 -107q-55 0 -78.5 37t-5.5 102l28 94q-184 41 -305 138 q-28 21 -46.5 55.5t-18.5 71.5zM565 1016q0 -37 24 -63.5t85 -53.5l80 264q-94 -6 -141.5 -47t-47.5 -100zM676 270q87 8 134.5 46t47.5 102q0 39 -22.5 66t-77.5 53z" />
<glyph unicode="%" horiz-adv-x="1802" d="M172 1024q0 107 48.5 203.5t141.5 159.5t207 63q142 0 229 -87.5t87 -227.5q0 -107 -49 -203.5t-142 -159.5t-207 -63q-142 0 -228.5 87.5t-86.5 227.5zM238 78q0 44 34 78l1203 1251q39 39 84 39q40 0 67 -25.5t27 -64.5q0 -43 -35 -78l-1202 -1251q-39 -39 -84 -39 q-40 0 -67 25.5t-27 64.5zM373 1032q0 -67 34 -106t93 -39q80 0 132 75t52 164q0 67 -34 106.5t-93 39.5q-80 0 -132 -75.5t-52 -164.5zM1006 299q0 107 48.5 203.5t141.5 159.5t207 63q142 0 228.5 -87.5t86.5 -227.5q0 -107 -48.5 -203.5t-141.5 -159.5t-207 -63 q-142 0 -228.5 87.5t-86.5 227.5zM1206 307q0 -67 34 -106t93 -39q80 0 132.5 75.5t52.5 163.5q0 67 -34 106.5t-93 39.5q-80 0 -132.5 -75.5t-52.5 -164.5z" />
<glyph unicode="&#x26;" horiz-adv-x="1425" d="M47 365q0 140 99.5 259t306.5 187q-76 133 -76 248q0 164 126.5 281.5t330.5 117.5q176 0 285.5 -97t109.5 -247q0 -56 -18.5 -107.5t-60.5 -104t-119.5 -100.5t-186.5 -85l160 -213q33 36 116 137q53 68 111 68q48 0 81.5 -28t33.5 -73q0 -44 -25 -82 q-81 -118 -170 -211l70 -96q17 -22 24.5 -33t15 -31t7.5 -40q0 -59 -38 -97t-97 -38q-70 0 -109 53l-76 102q-223 -155 -446 -155q-203 0 -329 103t-126 282zM344 383q0 -64 50.5 -104.5t142.5 -40.5q116 0 264 92l-221 303q-118 -45 -177 -112t-59 -138zM653 1055 q0 -73 60 -162q135 49 185 94t50 109q0 45 -34.5 80.5t-94.5 35.5q-74 0 -120 -46.5t-46 -110.5z" />
<glyph unicode="'" horiz-adv-x="585" d="M225 862l115 438q16 61 57 101.5t101 40.5h92q44 0 64 -24t16.5 -57.5t-23.5 -68.5l-248 -446q-44 -78 -110 -78q-38 0 -56.5 27t-7.5 67z" />
<glyph unicode="(" horiz-adv-x="911" d="M119 428q0 319 187 575t542 427q36 18 76 18q56 0 91.5 -36.5t35.5 -94.5q0 -79 -86 -127q-265 -146 -398 -339t-133 -413q0 -127 51 -240t148 -231q39 -46 39 -106q0 -57 -39 -95t-101 -38q-40 0 -64 10.5t-46 30.5q-303 289 -303 659z" />
<glyph unicode=")" horiz-adv-x="911" d="M-119 -141q0 79 86 127q265 147 398 339t133 412q0 127 -51 240t-148 231q-39 46 -39 107q0 57 38.5 95t100.5 38q66 0 111 -41q303 -289 303 -659q0 -319 -187 -575t-542 -427q-36 -18 -76 -18q-56 0 -91.5 36.5t-35.5 94.5z" />
<glyph unicode="*" horiz-adv-x="880" d="M221 1022q-2 31 17.5 53.5t54.5 26.5l180 24l-139 109q-41 30 -41 70q0 31 22.5 54t57.5 23q42 0 67 -36l109 -144l22 164q4 37 25.5 57.5t52.5 20.5q46 0 65 -33t-1 -80l-64 -155l152 61q30 12 61 12q29 0 47.5 -19t20.5 -50q1 -36 -18 -57.5t-54 -26.5l-180 -23 l139 -108q41 -30 41 -70q0 -31 -22.5 -54.5t-57.5 -23.5q-41 0 -67 37l-109 143l-22 -163q-4 -38 -25.5 -58t-54.5 -20q-42 0 -62.5 33.5t-1.5 74.5l66 160l-152 -61q-38 -15 -55 -15q-30 0 -51.5 21t-22.5 53z" />
<glyph unicode="+" horiz-adv-x="1310" d="M174 721q0 59 41 100t100 41h279l59 223q20 74 65.5 116t100.5 42q74 0 107 -51.5t8 -144.5l-49 -185h202q59 0 100.5 -41.5t41.5 -99.5t-41.5 -99.5t-100.5 -41.5h-278l-59 -224q-20 -73 -65.5 -115t-100.5 -42q-74 0 -107 51.5t-8 144.5l49 185h-203q-59 0 -100 41 t-41 100z" />
<glyph unicode="," horiz-adv-x="653" d="M-137 -264q0 55 71 71q97 20 151.5 69t61.5 124q-55 15 -83 55.5t-15 108.5l2 10q15 74 67.5 120t123.5 46q90 0 128.5 -60.5t16.5 -168.5l-2 -11q-41 -202 -195 -329q-56 -46 -126 -74.5t-127 -28.5q-38 0 -56 19.5t-18 48.5z" />
<glyph unicode="-" horiz-adv-x="843" d="M119 635q0 61 43.5 105t105.5 44h357q61 0 105 -44t44 -105q0 -62 -44 -106t-105 -44h-357q-61 0 -105 44t-44 106z" />
<glyph unicode="." horiz-adv-x="653" d="M45 158l2 12q14 76 69 123t132 47q79 0 122 -48.5t31 -121.5l-2 -12q-12 -74 -67.5 -122t-132.5 -48q-79 0 -122.5 49t-31.5 121z" />
<glyph unicode="/" horiz-adv-x="1085" d="M-174 -172q0 23 8.5 46t14.5 32.5t22 32.5l1196 1626q60 82 137 82q49 0 77 -27.5t28 -75.5q0 -23 -8.5 -46t-14 -31.5t-22.5 -32.5l-1196 -1627q-60 -81 -138 -81q-49 0 -76.5 27t-27.5 75z" />
<glyph unicode="0" horiz-adv-x="1495" d="M127 571q0 126 32.5 252.5t98.5 240.5t156.5 202t215 140t265.5 52q252 0 405.5 -163t153.5 -433q0 -126 -32.5 -252.5t-98.5 -240.5t-156.5 -202t-215 -140t-265.5 -52q-252 0 -405.5 163t-153.5 433zM451 569q0 -150 69.5 -229.5t190.5 -79.5q92 0 173 57t133.5 145.5 t82.5 194.5t30 207q0 150 -69.5 230t-190.5 80q-92 0 -173 -57t-133.5 -146t-82.5 -195t-30 -207z" />
<glyph unicode="1" horiz-adv-x="888" d="M213 1217q0 48 30.5 88t80.5 53l249 69q100 27 154 27h2q70 0 105 -49.5t16 -120.5l-305 -1139q-20 -75 -66 -116t-108 -41q-80 0 -115.5 55t-9.5 150l250 927l-121 -28q-25 -5 -37 -5q-51 0 -88 34.5t-37 95.5z" />
<glyph unicode="2" horiz-adv-x="1257" d="M-31 139q0 90 82 148l682 471q108 75 158.5 137t50.5 129q0 70 -48 108.5t-132 38.5q-138 0 -268 -112q-52 -45 -107 -45q-60 0 -99.5 41.5t-39.5 101.5q0 65 51 109q205 188 477 188q221 0 355.5 -110t134.5 -285q0 -135 -74.5 -244t-263.5 -240l-443 -303h441 q57 0 97 -40t40 -97t-40 -96t-97 -39h-787q-77 0 -123.5 35.5t-46.5 103.5z" />
<glyph unicode="3" horiz-adv-x="1236" d="M-4 250q0 62 45 106.5t106 44.5q52 0 101 -39q64 -57 118 -80.5t144 -23.5q113 0 191.5 60.5t78.5 140.5q0 82 -74 126t-206 44h-6q-55 0 -85 31.5t-30 87.5q0 60 70 116l372 299h-383q-56 0 -95.5 39.5t-39.5 95.5t40 96t95 40h692q72 0 116 -33.5t44 -95.5 q0 -53 -25 -86t-83 -78l-389 -297q305 -73 305 -357q0 -143 -78.5 -260t-217 -184.5t-306.5 -67.5q-288 0 -447 162q-53 53 -53 113z" />
<glyph unicode="4" horiz-adv-x="1349" d="M29 442q0 96 84 174l805 734q118 106 233 106q74 0 115.5 -45.5t21.5 -116.5l-194 -729h41q54 0 91.5 -37.5t37.5 -91.5t-37.5 -90.5t-91.5 -36.5h-111l-43 -164q-20 -75 -64.5 -116t-103.5 -41q-77 0 -110 55t-7 150l31 116h-545q-65 0 -109 36t-44 97zM432 565h365 l123 459z" />
<glyph unicode="5" horiz-adv-x="1249" d="M23 248q0 62 42 105.5t103 43.5q51 0 106 -43q117 -92 265 -92q125 0 207.5 65.5t82.5 157.5q0 81 -66 133t-188 52q-44 0 -97.5 -14.5t-71.5 -14.5q-62 0 -127 53q-69 54 -43 137l159 482q42 121 150 121h592q57 0 98 -41.5t41 -98.5t-41 -97t-98 -40h-494l-82 -244 q80 17 146 17q198 0 322 -112t124 -298q0 -107 -46 -205t-127.5 -173t-203 -120t-264.5 -45q-110 0 -225.5 40t-200.5 108q-63 52 -63 123z" />
<glyph unicode="6" horiz-adv-x="1316" d="M121 510q0 209 72.5 403.5t207.5 329.5q101 101 234 158t287 57q188 0 342 -90q71 -41 71 -129q0 -61 -42.5 -103t-102.5 -42q-35 0 -96 32q-94 50 -199 50q-166 0 -279 -113q-98 -98 -147 -252q49 49 141.5 85t188.5 36q122 0 219.5 -45.5t157 -138t59.5 -216.5 q0 -107 -46.5 -208.5t-125.5 -178.5t-190 -123.5t-232 -46.5q-115 0 -212 33.5t-161 97.5q-147 147 -147 404zM420 432q0 -76 53 -129q61 -61 168 -61q120 0 198.5 75t78.5 172q0 87 -60 138t-156 51q-124 0 -203 -72t-79 -174z" />
<glyph unicode="7" horiz-adv-x="1247" d="M139 109q0 64 49 129l721 923h-497q-57 0 -97.5 39t-40.5 96t40.5 97.5t97.5 40.5h768q71 0 108 -30.5t37 -86.5q0 -79 -72 -168l-811 -1063q-76 -98 -170 -98q-63 0 -98 32t-35 89z" />
<glyph unicode="8" horiz-adv-x="1355" d="M66 385q0 156 99 253t267 138q-83 42 -128.5 116t-45.5 161q0 72 35 141.5t99.5 128.5t170 95t234.5 36q223 0 365.5 -108.5t142.5 -276.5q0 -134 -83.5 -228.5t-230.5 -129.5q101 -38 160 -116.5t59 -188.5q0 -82 -41 -158t-115.5 -136t-189 -96t-250.5 -36 q-148 0 -272.5 49t-200 143t-75.5 213zM373 412q-2 -77 70 -128t188 -51q117 0 194 52t78 137q2 77 -70 126.5t-190 49.5q-117 0 -192.5 -53t-77.5 -133zM549 1020q-2 -72 60.5 -120t164.5 -48q99 0 166.5 51.5t69.5 126.5q2 71 -59 118.5t-169 47.5q-97 0 -164.5 -50.5 t-68.5 -125.5z" />
<glyph unicode="9" horiz-adv-x="1316" d="M59 209q0 61 43 103t103 42q35 0 96 -32q37 -20 59 -30t66.5 -22t87.5 -12q164 0 281 117q94 94 139 231q-49 -49 -139.5 -84t-186.5 -35q-189 0 -312.5 106.5t-123.5 299.5q0 154 78.5 284t215.5 205.5t300 75.5q108 0 210.5 -33.5t164.5 -95.5q74 -74 110.5 -177 t36.5 -257q0 -196 -75 -383t-212 -324q-213 -213 -503 -213q-102 0 -195.5 28.5t-159.5 70.5q-84 53 -84 135zM489 934q0 -91 61 -142t159 -51q123 0 200.5 74t77.5 180q0 84 -51 135q-62 62 -168 62q-123 0 -201 -75.5t-78 -182.5z" />
<glyph unicode=":" horiz-adv-x="653" d="M45 158l2 12q14 76 69 123t132 47q79 0 122 -48.5t31 -121.5l-2 -12q-12 -74 -67.5 -122t-132.5 -48q-79 0 -122.5 49t-31.5 121zM252 928l2 12q14 76 69 123t132 47q79 0 122 -48.5t31 -121.5l-2 -12q-12 -74 -67.5 -122t-132.5 -48q-79 0 -122.5 49t-31.5 121z" />
<glyph unicode=";" horiz-adv-x="653" d="M-137 -264q0 55 71 71q97 20 151.5 69t61.5 124q-55 15 -83 55.5t-15 108.5l2 10q15 74 67.5 120t123.5 46q90 0 128.5 -60.5t16.5 -168.5l-2 -11q-41 -202 -195 -329q-56 -46 -126 -74.5t-127 -28.5q-38 0 -56 19.5t-18 48.5zM252 928l2 12q14 76 69 123t132 47 q79 0 122 -48.5t31 -121.5l-2 -12q-12 -74 -67.5 -122t-132.5 -48q-79 0 -122.5 49t-31.5 121z" />
<glyph unicode="&#x3c;" horiz-adv-x="1310" d="M172 688v12q0 68 37.5 118t101.5 77l783 322q45 18 80 18q51 0 83.5 -30t32.5 -81q0 -94 -84 -127l-727 -288l520 -258q48 -24 66 -52.5t18 -72.5q0 -58 -38 -99t-97 -41q-38 0 -76 19l-563 295q-65 35 -101 78.5t-36 109.5z" />
<glyph unicode="=" horiz-adv-x="1310" d="M137 455q0 58 41.5 99.5t100.5 41.5h710q59 0 100 -41t41 -100t-41.5 -100.5t-99.5 -41.5h-710q-59 0 -100.5 41.5t-41.5 100.5zM281 987q0 59 41.5 100t99.5 41h711q59 0 100 -41t41 -100t-41 -100t-100 -41h-711q-58 0 -99.5 41t-41.5 100z" />
<glyph unicode="&#x3e;" horiz-adv-x="1310" d="M106 317q0 94 84 127l728 289l-521 258q-48 24 -66 52.5t-18 72.5q0 58 38.5 98.5t97.5 40.5q39 0 75 -18l563 -295q66 -36 102 -79t36 -109v-13q0 -68 -37.5 -117t-102.5 -77l-782 -322q-45 -18 -80 -18q-51 0 -84 29.5t-33 80.5z" />
<glyph unicode="?" horiz-adv-x="1114" d="M207 158l2 12q14 76 69 123t132 47q79 0 122 -48.5t31 -121.5l-2 -12q-12 -74 -68 -122t-133 -48q-79 0 -122 48.5t-31 121.5zM213 1192q0 80 70 131q177 129 415 129q208 0 332.5 -109.5t124.5 -263.5q0 -180 -133 -294t-391 -154l-23 -56q-18 -44 -53 -72t-78 -28h-16 q-45 0 -68.5 29t-17.5 78l18 155q6 50 36.5 73t96.5 32q136 20 217.5 68.5t81.5 127.5q0 60 -42.5 93.5t-127.5 33.5q-99 0 -211 -61q-68 -35 -106 -35q-54 0 -89.5 37.5t-35.5 85.5z" />
<glyph unicode="@" horiz-adv-x="2007" d="M113 477q0 156 49.5 304.5t141 271t213.5 215.5t275.5 144.5t317.5 51.5q151 0 283.5 -37t231 -103.5t170 -154.5t108 -192.5t36.5 -216.5q0 -156 -41 -279t-110.5 -197.5t-154.5 -112.5t-179 -38q-102 0 -177 42.5t-108 115.5q-156 -160 -327 -160q-141 0 -235.5 92.5 t-94.5 253.5q0 120 44.5 227t117 180t165 115.5t187.5 42.5q180 0 268 -143l2 6q21 61 54.5 92t85.5 31q55 0 87 -43t11 -106l-135 -426q-34 -106 1 -165t118 -59q56 0 114 35.5t108 99.5t81.5 168t31.5 228q0 125 -52 237.5t-146 198t-235.5 136t-309.5 50.5 q-188 0 -358.5 -74t-291.5 -197.5t-192 -289.5t-71 -344q0 -156 56.5 -289t157 -226.5t243.5 -146.5t311 -53q205 0 391 80q18 6 24 6q17 0 28 -11.5t11 -26.5q0 -25 -20 -35q-204 -92 -434 -92q-186 0 -344.5 59t-270 163t-174.5 252t-63 320zM772 514q0 -82 46 -129 t126 -47q107 0 195 97t88 229q0 76 -49.5 123t-128.5 47q-106 0 -191.5 -95t-85.5 -225z" />
<glyph unicode="A" horiz-adv-x="1566" d="M-25 111q0 55 37 104l797 1118q85 123 221 123h6q146 0 172 -149l193 -1086q10 -72 10 -82q0 -62 -46.5 -106.5t-115.5 -44.5q-64 0 -104.5 34.5t-48.5 90.5l-33 209h-635l-164 -236q-69 -98 -160 -98q-61 0 -95 33.5t-34 89.5zM621 600h397l-74 473z" />
<glyph unicode="B" horiz-adv-x="1468" d="M80 205l287 1071q20 74 67 116t109 42h424q241 0 363 -99t122 -254q0 -139 -82.5 -230.5t-224.5 -123.5q201 -93 201 -291q0 -197 -162.5 -316.5t-454.5 -119.5h-522q-81 0 -117 55q-21 32 -21 78q0 32 11 72zM406 276h370q118 0 187 49t69 132q0 64 -50.5 99.5 t-145.5 35.5h-347zM561 854h318q124 0 191 43.5t67 130.5q0 59 -49.5 94t-149.5 35h-297z" />
<glyph unicode="C" horiz-adv-x="1486" d="M137 600q0 113 31.5 222.5t87.5 203.5t136.5 174.5t176 137t209 88.5t232.5 32q282 0 473 -176q65 -61 65 -133q0 -68 -47 -116t-115 -48q-70 0 -110 45q-64 69 -131.5 103t-173.5 34q-97 0 -189.5 -44.5t-162 -118.5t-112 -177t-42.5 -215q0 -154 97.5 -250t252.5 -96 q83 0 135.5 20t134.5 72q60 37 107 37q61 0 102 -43.5t41 -105.5q0 -69 -55 -117q-83 -70 -208 -112t-259 -42q-297 0 -486.5 171t-189.5 454z" />
<glyph unicode="D" horiz-adv-x="1591" d="M80 205l287 1071q20 74 67 116t109 42h284q377 0 562 -185q155 -155 155 -420q0 -330 -235 -565q-264 -264 -752 -264h-350q-81 0 -117 55q-21 32 -21 78q0 32 11 72zM416 285h178q145 0 269.5 44.5t209.5 129.5q144 144 144 358q0 143 -84 227q-105 105 -330 105h-154z " />
<glyph unicode="E" horiz-adv-x="1361" d="M80 205l287 1071q20 74 67 116t109 42h770q58 0 99.5 -41.5t41.5 -100.5q0 -58 -41 -98.5t-100 -40.5h-666l-78 -293h498q59 0 100 -40.5t41 -98.5t-41 -97.5t-100 -39.5h-573l-82 -303h602q58 0 99.5 -41.5t41.5 -100.5q0 -58 -41 -98.5t-100 -40.5h-807q-81 0 -117 55 q-21 32 -21 78q0 32 11 72z" />
<glyph unicode="F" horiz-adv-x="1357" d="M76 193l291 1083q20 74 67 116t109 42h788q60 0 102 -42t42 -102t-42 -101.5t-102 -41.5h-684l-82 -305h514q60 0 102 -42t42 -102t-42 -101.5t-102 -41.5h-590l-110 -410q-20 -74 -67 -115.5t-109 -41.5q-81 0 -117 55q-21 32 -21 78q0 32 11 72z" />
<glyph unicode="G" horiz-adv-x="1597" d="M135 598q0 166 68 322.5t185 275t285.5 190.5t356.5 72q167 0 297.5 -46.5t202.5 -113.5q63 -55 63 -127q0 -65 -45.5 -110t-109.5 -45q-52 0 -99 33q-78 62 -151.5 91t-181.5 29q-150 0 -275.5 -77.5t-196.5 -206.5t-71 -277q0 -162 103.5 -253t262.5 -91q137 0 256 55 l68 234h-176q-57 0 -97 39t-40 96t40 97t97 40h371q80 0 116 -55q22 -32 22 -77q0 -32 -11 -70l-113 -396q-30 -112 -127 -164q-66 -35 -182 -61.5t-244 -26.5q-100 0 -196 23t-183 73.5t-152.5 122t-104 176t-38.5 228.5z" />
<glyph unicode="H" horiz-adv-x="1548" d="M76 193l295 1095q20 74 67 116t109 42q81 0 117 -55q21 -32 21 -78q0 -33 -11 -72l-101 -375h574l113 422q20 74 67 116t109 42q80 0 116 -55q21 -32 22 -78q0 -33 -11 -72l-295 -1096q-20 -74 -67 -115.5t-109 -41.5q-80 0 -116 55q-21 32 -22 78q0 33 11 72l104 382 h-573l-117 -430q-20 -74 -67 -115.5t-109 -41.5q-81 0 -117 55q-21 32 -21 78q0 32 11 72z" />
<glyph unicode="I" horiz-adv-x="688" d="M90 193l295 1095q20 74 67 116t109 42q81 0 117 -55q21 -32 21 -78q0 -33 -11 -72l-295 -1096q-20 -74 -67 -115.5t-109 -41.5q-81 0 -117 55q-21 32 -21 78q0 32 11 72z" />
<glyph unicode="J" horiz-adv-x="1177" d="M-39 229q0 63 43.5 107.5t104.5 44.5q54 0 108 -43q81 -66 186 -66q119 0 199 80q36 36 62 95.5t63 197.5l172 643q20 74 67 116t109 42q80 0 117 -55q21 -32 21 -78q0 -32 -11 -72l-180 -672q-45 -173 -89.5 -267t-119.5 -169q-153 -153 -428 -153q-97 0 -195.5 32.5 t-171.5 96.5q-57 53 -57 120z" />
<glyph unicode="K" horiz-adv-x="1472" d="M76 193l295 1095q20 74 67 116t109 42q81 0 117 -55q21 -32 21 -78q0 -33 -11 -72l-119 -442l698 585q24 20 40 31.5t40.5 21t50.5 9.5q65 0 104.5 -40.5t39.5 -100.5q0 -71 -55 -117l-461 -377l254 -580q24 -59 24 -102q0 -63 -47.5 -102t-109.5 -39q-115 0 -160 110 l-219 537l-310 -244l-65 -246q-20 -74 -67 -115.5t-109 -41.5q-81 0 -117 55q-21 32 -21 78q0 32 11 72z" />
<glyph unicode="L" horiz-adv-x="1282" d="M80 205l291 1083q20 74 67 116t109 42q81 0 117 -55q21 -32 21 -78q0 -33 -11 -72l-256 -954h547q59 0 100 -42t41 -102q0 -61 -41 -102t-100 -41h-758q-81 0 -117 55q-21 32 -21 78q0 32 11 72z" />
<glyph unicode="M" horiz-adv-x="1777" d="M76 193l293 1089q43 160 180 160h18q59 0 97.5 -32.5t62.5 -96.5l217 -574l506 604q44 50 87 74.5t99 24.5h29q79 0 115 -55q20 -32 21 -77q0 -33 -11 -73l-293 -1092q-20 -74 -68 -115.5t-110 -41.5q-79 0 -117 56q-22 33 -23 78q0 32 11 71l176 661l-352 -383 q-84 -94 -172 -94q-52 0 -82 27t-53 88l-138 360l-190 -707q-20 -74 -67 -115.5t-109 -41.5q-81 0 -117 55q-21 32 -21 78q0 32 11 72z" />
<glyph unicode="N" horiz-adv-x="1609" d="M76 193l293 1091q20 76 68 117t118 41h14q129 0 185 -125l364 -795l207 766q20 75 66 116.5t108 41.5q79 0 115 -55q20 -32 21 -77q0 -33 -11 -73l-297 -1102q-40 -147 -170 -147h-6q-71 0 -110.5 28.5t-69.5 90.5l-383 829l-213 -795q-20 -75 -66 -116t-108 -41 q-79 0 -115 55q-20 32 -21 77q0 33 11 73z" />
<glyph unicode="O" horiz-adv-x="1703" d="M137 610q0 160 63.5 313t174 271.5t274 191t350.5 72.5q145 0 268.5 -49t208 -133.5t132 -201.5t47.5 -251q0 -160 -63.5 -313t-174 -271.5t-274 -191t-350.5 -72.5q-145 0 -268.5 49t-208 133.5t-132 201.5t-47.5 251zM465 631q0 -164 95.5 -264.5t268.5 -100.5 q87 0 167 32t139 86t103 123t66.5 145.5t22.5 150.5q0 164 -95.5 264t-268.5 100q-109 0 -204.5 -49t-158.5 -126.5t-99 -172t-36 -188.5z" />
<glyph unicode="P" horiz-adv-x="1390" d="M76 193l291 1083q20 74 67 116t109 42h321q156 0 265 -34.5t186 -111.5q110 -110 110 -295q0 -173 -93 -301.5t-249.5 -193t-353.5 -64.5h-272l-78 -289q-20 -74 -67 -115.5t-109 -41.5q-81 0 -117 55q-21 32 -21 78q0 32 11 72zM530 711h215q159 0 255 68t96 188 q0 71 -47 118q-64 64 -197 64h-205z" />
<glyph unicode="Q" horiz-adv-x="1703" d="M137 610q0 160 63.5 313t174 271.5t274 191t350.5 72.5q145 0 268.5 -49t208 -133.5t132 -201.5t47.5 -251q0 -163 -63.5 -316.5t-180.5 -273.5l27 -32q49 -57 49 -121q0 -63 -43 -105.5t-107 -42.5q-82 0 -125 68l-41 61q-174 -86 -378 -86q-145 0 -268.5 49t-208 133.5 t-132 201.5t-47.5 251zM465 631q0 -164 95.5 -264.5t268.5 -100.5q96 0 181 37l-88 119q-18 25 -26.5 38t-18 38.5t-9.5 50.5q0 64 45 110t109 46q77 0 117 -64l92 -147q96 148 96 309q0 164 -95.5 264t-268.5 100q-109 0 -204.5 -49t-158.5 -126.5t-99 -172t-36 -188.5z " />
<glyph unicode="R" horiz-adv-x="1488" d="M76 193l291 1083q20 74 67 116t109 42h389q310 0 454 -144q111 -111 111 -289q0 -208 -131 -339q-60 -60 -133.5 -99.5t-179.5 -68.5l176 -263q35 -51 35 -100q0 -67 -47 -105t-107 -38q-121 0 -184 104l-228 367h-235l-84 -314q-20 -74 -67 -115.5t-109 -41.5 q-81 0 -117 55q-21 32 -21 78q0 32 11 72zM539 737h280q197 0 289 92q59 59 59 146q0 70 -45 115q-59 59 -209 59h-264z" />
<glyph unicode="S" horiz-adv-x="1302" d="M12 274q0 68 44 114t110 46q51 0 100 -39q92 -76 170 -107.5t182 -31.5q96 0 158 41.5t62 108.5q0 53 -50 91.5t-194 96.5q-62 25 -109 49t-95 59t-78.5 73.5t-50 91.5t-19.5 114q0 107 45.5 197t123.5 150t181.5 93t218.5 33q151 0 251 -34t185 -93q74 -53 74 -131 q0 -65 -45.5 -109.5t-110.5 -44.5q-51 0 -86 27q-73 57 -140.5 83t-152.5 26q-95 0 -151.5 -44t-56.5 -102q0 -55 49 -90t202 -98q64 -26 112 -51t94 -59.5t75 -73t46.5 -90.5t17.5 -113q0 -145 -80.5 -255.5t-208.5 -166t-281 -55.5q-147 0 -288 37.5t-242 125.5 q-62 51 -62 131z" />
<glyph unicode="T" horiz-adv-x="1269" d="M225 1288q0 60 43 103t103 43h919q60 0 103 -43t43 -103t-43 -102.5t-103 -42.5h-342l-268 -998q-20 -74 -67 -115.5t-109 -41.5q-80 0 -116 55q-21 32 -22 78q0 33 11 72l256 950h-262q-60 0 -103 42.5t-43 102.5z" />
<glyph unicode="U" horiz-adv-x="1564" d="M166 461q0 89 35 229l159 598q20 74 67.5 116t109.5 42q81 0 117 -55q21 -32 21 -78q0 -33 -11 -72l-156 -579q-23 -94 -23 -156q0 -108 65.5 -173t184.5 -65q141 0 234 90q93 93 139 267l178 663q20 74 67 116t109 42q80 0 116 -55q21 -32 22 -78q0 -33 -11 -72 l-178 -661q-74 -279 -221 -426q-177 -177 -488 -177q-250 0 -393 128t-143 356z" />
<glyph unicode="V" horiz-adv-x="1482" d="M256 1303q0 62 46 102.5t120 40.5t116 -38.5t50 -107.5l104 -866l600 912q65 100 164 100q64 0 103.5 -29.5t39.5 -87.5q0 -50 -28 -90l-774 -1135q-85 -127 -209 -127h-15q-126 0 -147 140l-164 1112q-6 35 -6 74z" />
<glyph unicode="W" horiz-adv-x="2269" d="M258 1300q0 62 46.5 104t117.5 42q69 0 111 -35t45 -96l53 -852l512 862q36 61 79 93t103 32h18q66 0 102.5 -32.5t41.5 -92.5l57 -862l524 878q64 105 168 105q66 0 107 -35t41 -94q0 -39 -27 -84l-706 -1129q-78 -127 -211 -127h-15q-66 0 -104 35.5t-41 104.5l-61 792 l-492 -805q-77 -127 -205 -127h-14q-65 0 -103.5 36t-44.5 104l-98 1110q-4 46 -4 73z" />
<glyph unicode="X" horiz-adv-x="1433" d="M18 127q0 33 17.5 67t44.5 60l495 489l-231 431q-39 72 -39 116q0 66 46 111t114 45q110 0 166 -115l182 -375l389 404q42 44 78 65t84 21q55 0 95 -37.5t40 -99.5q0 -68 -55 -123l-483 -477l241 -449q39 -72 39 -117q0 -66 -46 -110.5t-114 -44.5q-110 0 -166 114 l-184 383l-416 -411q-31 -31 -48.5 -45.5t-47.5 -27.5t-65 -13q-56 0 -96 37.5t-40 101.5z" />
<glyph unicode="Y" horiz-adv-x="1331" d="M205 1296q0 64 48 107t122 43q58 0 94 -30.5t59 -92.5l183 -492l479 527q84 90 170 90q61 0 96 -34.5t35 -94.5q0 -68 -53 -125l-635 -670l-103 -379q-20 -74 -67 -115.5t-109 -41.5q-80 0 -116 55q-22 32 -22 78q0 32 11 72l97 360l-258 625q-31 78 -31 118z" />
<glyph unicode="Z" horiz-adv-x="1411" d="M-14 123v4q0 73 86 156l960 874h-573q-57 0 -98.5 40t-41.5 97t41.5 98.5t98.5 41.5h911q63 0 100 -33t37 -90v-4q0 -73 -86 -156l-960 -875h606q57 0 98 -41t41 -98t-41 -97t-98 -40h-944q-63 0 -100 33t-37 90z" />
<glyph unicode="[" horiz-adv-x="952" d="M23 -109l370 1385q18 68 68.5 113t120.5 45h372q51 0 87 -36t36 -87t-36 -86t-87 -35h-284l-326 -1213h219q51 0 87 -34.5t36 -85.5t-36 -87t-87 -36h-413q-68 0 -106 47t-21 110z" />
<glyph unicode="\" horiz-adv-x="1085" d="M272 1532q0 50 33.5 82.5t85.5 32.5q55 0 88.5 -33t44.5 -90l357 -1587q14 -68 14 -97q0 -50 -33.5 -82t-85.5 -32q-55 0 -88.5 33t-44.5 89l-356 1588q-15 73 -15 96z" />
<glyph unicode="]" horiz-adv-x="952" d="M-106 -143q0 51 35.5 85.5t86.5 34.5h285l326 1213h-219q-51 0 -87 35t-36 86t36 87t87 36h413q68 0 106 -47.5t21 -110.5l-370 -1385q-18 -68 -68.5 -112.5t-120.5 -44.5h-373q-51 0 -86.5 36t-35.5 87z" />
<glyph unicode="^" d="M256 1059q0 36 35 71l217 220q43 43 82.5 65.5t89.5 22.5h18q100 0 144 -95l98 -219q23 -52 23 -75t-19 -36.5t-49 -13.5q-60 0 -90.5 19t-67.5 92l-71 139l-150 -143q-65 -62 -103.5 -84.5t-84.5 -22.5q-34 0 -53 17.5t-19 42.5z" />
<glyph unicode="_" horiz-adv-x="1228" d="M-322 -209q0 49 35 84t84 35h1237q50 0 84.5 -35t34.5 -84t-34.5 -84t-84.5 -35h-1237q-49 0 -84 35t-35 84z" />
<glyph unicode="`" d="M543 1458q0 37 56.5 70t115.5 33q81 0 108 -76l62 -168q8 -24 8 -43q0 -31 -26.5 -49.5t-71.5 -18.5t-71 13.5t-58 54.5l-95 119q-28 40 -28 65z" />
<glyph unicode="a" horiz-adv-x="1204" d="M14 274q0 185 133.5 290.5t339.5 105.5q155 0 310 -49l4 14q12 50 12 82q0 129 -207 129q-95 0 -190 -25q-36 -8 -51 -8q-53 0 -88 35.5t-35 89.5q0 44 26.5 76t67.5 45q158 51 336 51q219 0 331.5 -87.5t112.5 -250.5q0 -72 -24 -166l-123 -461q-20 -75 -66 -116 t-108 -41q-134 0 -134 123q0 8 1 16q-138 -147 -328 -147q-142 0 -231 82.5t-89 211.5zM324 309q0 -52 39 -84t104 -32q94 0 171.5 64.5t104.5 156.5l9 28q-103 39 -205 39q-98 0 -160.5 -47t-62.5 -125z" />
<glyph unicode="b" horiz-adv-x="1380" d="M45 193l307 1157q20 75 66 116t108 41q80 -1 116 -55q20 -31 20 -76q0 -33 -11 -73l-86 -324q75 70 148 104.5t161 34.5q185 0 303.5 -126.5t118.5 -344.5q0 -142 -51.5 -268t-135.5 -212.5t-194 -136.5t-225 -50q-123 0 -204.5 46t-139.5 134l-4 -15q-19 -70 -62 -113.5 t-110 -43.5q-80 0 -116 55q-20 32 -20 77q0 33 11 73zM414 475q0 -104 66 -168.5t169 -64.5q129 0 227.5 111.5t98.5 273.5q0 106 -62.5 167.5t-167.5 61.5q-131 0 -231 -113t-100 -268z" />
<glyph unicode="c" horiz-adv-x="1146" d="M86 471q0 175 88 324.5t237 236t322 86.5q229 0 371 -137q57 -53 57 -121q0 -60 -43 -102.5t-106 -42.5q-64 0 -103 45q-76 92 -200 92t-220 -115t-96 -266q0 -104 61 -167.5t154 -63.5q100 0 189 61q55 35 92 35q54 0 89.5 -37.5t35.5 -91.5q0 -62 -47 -103 q-160 -129 -369 -129q-226 0 -369 136.5t-143 359.5z" />
<glyph unicode="d" horiz-adv-x="1380" d="M82 451q0 142 51.5 268t135.5 212.5t194 136.5t225 50q123 0 204.5 -46t139.5 -134l109 412q20 75 66 116t108 41q79 -1 115 -55q20 -31 21 -76q0 -33 -11 -73l-310 -1158q-20 -75 -67 -116t-113 -41t-101.5 35.5t-35.5 95.5q-75 -70 -148 -104.5t-161 -34.5 q-185 0 -303.5 126.5t-118.5 344.5zM403 471q0 -106 62.5 -167.5t167.5 -61.5q131 0 231.5 113t100.5 268q0 104 -66.5 168.5t-169.5 64.5q-129 0 -227.5 -111.5t-98.5 -273.5z" />
<glyph unicode="e" horiz-adv-x="1243" d="M84 463q0 95 29.5 189.5t87 178t135 148t181.5 102t218 37.5q209 0 329 -120t120 -308q0 -52 -13 -112q-31 -138 -149 -138h-645q8 -101 69.5 -158t180.5 -57q93 0 170 43q56 29 94 29q50 0 83.5 -33.5t33.5 -85.5q0 -65 -60 -104q-151 -99 -356 -99q-236 0 -372 130.5 t-136 357.5zM403 635h478q10 33 10 72q0 72 -44.5 116.5t-135.5 44.5q-104 0 -186.5 -63.5t-121.5 -169.5z" />
<glyph unicode="f" horiz-adv-x="841" d="M98 193l174 638q-45 7 -79.5 42t-34.5 92t37.5 95t91.5 38h55l14 59q91 352 445 352q57 0 94 -6q45 -8 73.5 -38.5t28.5 -80.5q0 -71 -42 -110q-34 -33 -76 -33q-9 0 -19 2q-32 4 -49 4q-120 0 -154 -119l-8 -30h111q54 0 91.5 -38t37.5 -95t-37.5 -95.5t-91.5 -38.5 h-176l-187 -686q-20 -75 -66 -116t-108 -41q-80 0 -115 55q-21 32 -21 77q0 33 11 73z" />
<glyph unicode="g" horiz-adv-x="1374" d="M-49 -119q0 56 37 95.5t92 39.5q40 0 90 -24q157 -78 322 -78q149 0 237 88q60 60 100 197l11 37q-88 -78 -166.5 -112t-177.5 -34q-108 0 -199.5 42.5t-150 131.5t-58.5 209q0 134 51.5 255t135 205.5t192 134.5t221.5 50q68 0 123 -15t94 -43t66.5 -59.5t50.5 -72.5 l8 24q19 70 62.5 114t109.5 44q80 0 116 -55q20 -32 20 -77q0 -33 -11 -73l-184 -690q-43 -162 -84 -244.5t-109 -150.5q-152 -152 -438 -152q-260 0 -473 94q-88 42 -88 119zM410 532q0 -94 56.5 -144t151.5 -50q130 0 227 94.5t97 224.5q0 93 -59 147t-158 54 q-129 0 -222 -98.5t-93 -227.5z" />
<glyph unicode="h" horiz-adv-x="1273" d="M45 193l307 1157q20 75 66 116t108 41q80 -1 116 -55q20 -31 20 -76q0 -33 -11 -73l-84 -320q150 135 299 135t236.5 -85.5t87.5 -233.5q0 -65 -37 -209l-119 -445q-20 -75 -66 -116t-108 -41q-80 0 -116 55q-20 32 -20 77q0 33 11 73l111 409q14 54 14 98 q0 66 -39.5 101t-111.5 35q-89 0 -150 -59t-88 -161l-127 -471q-20 -75 -66 -116t-108 -41q-80 0 -116 55q-20 32 -20 77q0 33 11 73z" />
<glyph unicode="i" horiz-adv-x="618" d="M57 193l205 759q20 75 66 116.5t108 41.5q80 0 116 -55q20 -32 20 -77q0 -33 -11 -73l-205 -760q-20 -75 -66 -116t-108 -41q-80 0 -116 55q-20 32 -20 77q0 33 11 73zM350 1352l2 10q13 65 69.5 104t131.5 39q73 0 117 -41q34 -32 34 -77q0 -12 -2 -25l-2 -10 q-13 -65 -69 -104.5t-131 -39.5q-74 0 -118 42q-35 33 -35 77q0 12 3 25z" />
<glyph unicode="j" horiz-adv-x="616" d="M-258 -209q0 55 34 93q32 34 76 34h9t24 -2t27 -2q41 0 64.5 31.5t43.5 105.5l242 901q20 75 66 116.5t108 41.5q80 0 116 -55q20 -32 20 -77q0 -33 -11 -73l-235 -878q-98 -361 -420 -361q-77 0 -120.5 31t-43.5 94zM350 1352l2 10q13 65 69.5 104t131.5 39 q74 0 117 -41q35 -32 35 -77q0 -12 -3 -25l-2 -10q-13 -65 -69 -104.5t-131 -39.5q-74 0 -118 42q-35 32 -35 77q0 12 3 25z" />
<glyph unicode="k" horiz-adv-x="1210" d="M45 193l311 1157q20 75 66 116t108 41q80 -1 116 -55q20 -31 20 -76q0 -33 -11 -73l-163 -607l471 359q25 20 37.5 28.5t35 17.5t45.5 9q57 0 93 -36t36 -89q0 -65 -57 -106l-324 -236l170 -412q27 -66 27 -106q0 -62 -48.5 -99.5t-111.5 -37.5q-115 0 -161 112l-146 349 l-168 -123l-47 -181q-20 -75 -66 -116t-108 -41q-80 0 -116 55q-20 32 -20 77q0 33 11 73z" />
<glyph unicode="l" horiz-adv-x="618" d="M57 193l312 1157q20 75 66 116t108 41q79 -1 115 -55q20 -31 21 -76q0 -33 -11 -73l-312 -1158q-20 -75 -66 -116t-108 -41q-80 0 -116 55q-20 32 -20 77q0 33 11 73z" />
<glyph unicode="m" horiz-adv-x="1943" d="M45 193l203 759q20 75 67 116.5t113 41.5q65 0 102 -36t37 -91q70 63 138.5 99t152.5 36q110 0 184 -52.5t107 -145.5q162 198 393 198q148 0 233 -85t85 -234q0 -65 -37 -209l-119 -445q-20 -75 -66 -116t-108 -41q-80 0 -116 55q-20 32 -20 77q0 33 11 73l111 409 q14 54 14 98q0 66 -37 101t-109 35q-89 0 -147 -58.5t-86 -161.5l-127 -471q-20 -75 -66 -116t-108 -41q-80 0 -116 55q-20 32 -20 77q0 33 11 73l111 409q14 54 14 98q0 136 -145 136q-89 0 -148 -58.5t-86 -161.5l-127 -471q-20 -75 -66 -116t-108 -41q-80 0 -116 55 q-20 32 -20 77q0 33 11 73z" />
<glyph unicode="n" horiz-adv-x="1267" d="M45 193l203 759q20 75 67 116.5t113 41.5q65 0 102 -36t37 -91q150 135 299 135t236.5 -85.5t87.5 -233.5q0 -65 -37 -209l-119 -445q-20 -75 -66 -116t-108 -41q-80 0 -116 55q-20 32 -20 77q0 33 11 73l111 409q14 54 14 98q0 66 -39.5 101t-111.5 35q-89 0 -150 -59 t-88 -161l-127 -471q-20 -75 -66 -116t-108 -41q-80 0 -116 55q-20 32 -20 77q0 33 11 73z" />
<glyph unicode="o" horiz-adv-x="1335" d="M86 483q0 121 50.5 237t134.5 203.5t202.5 141t247.5 53.5q241 0 384.5 -142.5t143.5 -365.5q0 -121 -50.5 -237t-134.5 -203.5t-202.5 -141t-247.5 -53.5q-241 0 -384.5 142.5t-143.5 365.5zM391 492q0 -118 65 -184t173 -66q90 0 164.5 58t112.5 140t38 162 q0 118 -64.5 184t-172.5 66q-68 0 -129 -34t-101 -87.5t-63 -116.5t-23 -122z" />
<glyph unicode="p" horiz-adv-x="1380" d="M-43 -135l291 1087q20 75 67 116.5t113 41.5t101.5 -35.5t35.5 -95.5q75 70 148 104.5t161 34.5q185 0 303.5 -126.5t118.5 -344.5q0 -142 -51.5 -268t-135.5 -212.5t-194 -136.5t-225 -50q-123 0 -204.5 46t-139.5 134l-90 -342q-20 -75 -66 -116.5t-108 -41.5 q-80 0 -116 55q-20 32 -20 77q0 33 11 73zM414 475q0 -104 66 -168.5t169 -64.5q129 0 227.5 111.5t98.5 273.5q0 106 -62.5 167.5t-167.5 61.5q-131 0 -231 -113t-100 -268z" />
<glyph unicode="q" horiz-adv-x="1380" d="M82 451q0 142 51.5 268t135.5 212.5t194 136.5t225 50q123 0 204.5 -46t139.5 -134l4 14q19 70 62.5 114t109.5 44q80 0 116 -55q20 -32 20 -77q0 -33 -11 -73l-289 -1087q-20 -75 -66 -116.5t-108 -41.5q-80 0 -116 55q-20 32 -20 77q0 33 11 73l68 254 q-75 -70 -148 -104.5t-161 -34.5q-185 0 -303.5 126.5t-118.5 344.5zM403 471q0 -106 62.5 -167.5t167.5 -61.5q131 0 231.5 113t100.5 268q0 104 -66.5 168.5t-169.5 64.5q-129 0 -227.5 -111.5t-98.5 -273.5z" />
<glyph unicode="r" horiz-adv-x="858" d="M43 193l205 759q20 75 66 116.5t108 41.5q77 0 112 -52q22 -33 22 -78q0 -26 -7 -56l-6 -25q111 211 252 211q61 0 97 -37t36 -102q0 -62 -32.5 -101t-102.5 -59q-149 -42 -241.5 -142t-141.5 -280l-68 -244q-20 -75 -66 -116t-108 -41q-80 0 -116 55q-20 32 -20 77 q0 33 11 73z" />
<glyph unicode="s" d="M-33 219q0 54 36.5 92.5t88.5 38.5q46 0 82 -28q138 -109 293 -109q62 0 96.5 25t34.5 71q0 29 -31.5 52t-95.5 51q-63 27 -100.5 45.5t-84.5 48.5t-72.5 60t-43.5 73t-18 94q0 168 120 276.5t320 108.5q185 0 350 -98q72 -42 72 -115q0 -56 -37.5 -94.5t-91.5 -38.5 q-32 0 -82 31q-119 78 -234 78q-57 0 -88.5 -25t-31.5 -68q0 -30 34 -55t111 -59q53 -23 87.5 -40.5t79 -47t70.5 -59t45 -72.5t19 -93q0 -177 -125.5 -282t-325.5 -105q-115 0 -224 37.5t-197 100.5q-56 41 -56 106z" />
<glyph unicode="t" horiz-adv-x="849" d="M113 197q0 55 20 137l133 497q-45 7 -79.5 42t-34.5 92t37.5 95t91.5 38h57l37 135q20 75 66 116.5t108 41.5q79 0 115 -55q20 -32 21 -77q0 -33 -11 -73l-25 -88h105q54 0 91.5 -38t37.5 -95t-37.5 -95.5t-91.5 -38.5h-176l-123 -460q-9 -36 -9 -49q0 -31 20 -48.5 t58 -17.5h25q48 0 79 -30.5t31 -86.5q0 -93 -79 -127q-68 -30 -183 -30q-139 0 -211.5 59.5t-72.5 155.5z" />
<glyph unicode="u" horiz-adv-x="1273" d="M84 299q0 65 37 209l119 444q20 75 66 116.5t108 41.5q80 0 116 -55q20 -32 20 -77q0 -33 -11 -73l-111 -409q-14 -54 -14 -99q0 -66 39.5 -100.5t111.5 -34.5q89 0 150 58.5t88 160.5l127 471q20 75 66 116.5t108 41.5q80 0 116 -55q20 -32 20 -77q0 -33 -11 -73 l-203 -760q-20 -75 -67 -116t-113 -41q-65 0 -102 36t-37 91q-150 -135 -299 -135t-236.5 85.5t-87.5 233.5z" />
<glyph unicode="v" horiz-adv-x="1212" d="M166 967q0 61 48 102t110 41q68 0 110.5 -35t46.5 -96l62 -612l407 645q63 98 162 98q61 0 96 -31.5t35 -87.5q0 -48 -24 -82l-555 -803q-46 -67 -93 -96.5t-114 -29.5h-8q-135 0 -156 139l-121 774q-6 34 -6 74z" />
<glyph unicode="w" horiz-adv-x="1755" d="M166 965q0 60 49 102.5t111 42.5q68 0 111 -35t44 -96l15 -547l319 555q71 125 182 125h17q62 0 99 -33t40 -92l25 -557l335 588q24 42 62 67t84 25q59 0 92 -31t33 -86q0 -42 -25 -84l-481 -803q-74 -126 -203 -126h-10q-65 0 -101.5 35.5t-39.5 103.5l-27 547 l-328 -560q-73 -126 -202 -126h-11q-135 0 -141 139l-45 772q-4 46 -4 74z" />
<glyph unicode="x" horiz-adv-x="1183" d="M-6 106q0 77 69 140l361 321l-178 281q-39 58 -39 119q0 63 40 105t105 42q58 0 93.5 -28t68.5 -89l125 -229l270 266q32 31 47 43.5t43 24.5t60 12q53 0 89 -34t36 -89q0 -75 -72 -139l-342 -307l184 -297q39 -62 39 -117q0 -67 -42 -108t-109 -41q-55 0 -90 28t-66 88 l-131 246l-289 -281q-3 -2 -20 -18t-20.5 -18t-17.5 -13t-20.5 -13.5t-19.5 -8t-25 -7t-26 -1.5q-53 0 -88 34t-35 88z" />
<glyph unicode="y" horiz-adv-x="1212" d="M-59 -176q0 56 37 95.5t85 39.5q10 0 64 -14q66 -17 92 -17q57 0 107 66l-131 897q-7 40 -7 74q0 61 45.5 103t110.5 42q64 0 106.5 -36t45.5 -97l63 -633l385 668q55 98 158 98q61 0 98 -32.5t37 -88.5q0 -41 -41 -106l-569 -910q-105 -167 -207.5 -237t-237.5 -70 q-95 0 -147 23q-94 40 -94 135z" />
<glyph unicode="z" horiz-adv-x="1140" d="M-29 115v2q0 74 76 139l676 590h-385q-53 0 -90 36.5t-37 88.5q0 53 37.5 90t89.5 37h684q65 0 102 -30.5t37 -84.5v-2q0 -74 -76 -139l-677 -590h409q53 0 90 -37t37 -90q0 -52 -37 -88.5t-90 -36.5h-706q-65 0 -102.5 30.5t-37.5 84.5z" />
<glyph unicode="{" horiz-adv-x="1003" d="M100 588q0 52 35.5 85.5t91.5 33.5h6q138 0 196 65t81 248q27 219 146.5 321.5t334.5 118.5q67 4 102 -24t35 -82q0 -45 -26 -73t-70 -36q-71 -12 -116.5 -33.5t-73.5 -59t-42 -85t-22 -121.5q-15 -140 -56.5 -221t-106 -116t-171.5 -46q83 -12 128.5 -61t45.5 -121 q0 -64 -36 -158q-35 -94 -35 -143q0 -39 14.5 -67.5t30.5 -41t45 -28.5q72 -35 72 -109q0 -57 -42 -89t-102 -19q-164 39 -239.5 109t-75.5 190q0 69 41 176q33 87 33 145q0 54 -19 80t-72 39q-71 14 -102 44.5t-31 78.5z" />
<glyph unicode="|" horiz-adv-x="716" d="M270 -152v1676q0 51 36 87t87 36t87 -36t36 -87v-1676q0 -51 -36 -86.5t-87 -35.5t-87 35.5t-36 86.5z" />
<glyph unicode="}" horiz-adv-x="1003" d="M-104 -178q0 45 26 72.5t70 35.5q71 12 116.5 33.5t73.5 59t42 85t22 121.5q15 140 56.5 221t106 116t171.5 46q-83 12 -128.5 61.5t-45.5 121.5q0 63 36 157q35 94 35 144q0 39 -14.5 67.5t-30.5 41t-45 28.5q-72 35 -72 108q0 57 42 89.5t102 19.5q164 -39 239.5 -109 t75.5 -190q0 -69 -41 -176q-33 -87 -33 -146q0 -54 19 -79.5t72 -38.5q71 -15 102 -45t31 -78q0 -52 -35.5 -85.5t-91.5 -33.5h-6q-138 0 -196 -65t-81 -248q-27 -219 -146.5 -322t-334.5 -119q-67 -4 -102 24.5t-35 82.5z" />
<glyph unicode="~" horiz-adv-x="1044" d="M131 541q0 30 16 59q52 93 124.5 149t154.5 56q50 0 85.5 -15t76.5 -45q43 -31 64 -42t44 -11q57 0 111 66q21 24 41 35.5t51 11.5q37 0 61.5 -23.5t24.5 -58.5q0 -30 -16 -59q-52 -93 -124.5 -149t-154.5 -56q-50 0 -84.5 14.5t-77.5 44.5q-43 31 -64 42t-44 11 q-58 0 -111 -65q-21 -24 -41 -35.5t-51 -11.5q-37 0 -61.5 23.5t-24.5 58.5z" />
<glyph unicode="&#xa1;" horiz-adv-x="665" d="M35 98l293 783q29 77 102 77q42 0 64.5 -27t15.5 -73l-123 -760q-8 -45 -37 -74.5t-69 -29.5h-187q-41 0 -57.5 31t-1.5 73zM348 1264l2 12q12 74 68 122t133 48q79 0 122.5 -49t31.5 -121l-3 -12q-14 -76 -68.5 -123t-131.5 -47q-79 0 -122.5 49t-31.5 121z" />
<glyph unicode="&#xa2;" horiz-adv-x="1200" d="M135 668q0 132 50 249t136.5 200.5t206.5 132t256 48.5q36 0 54 -2l22 60q44 102 119 102q54 0 79 -38t1 -99l-27 -68q97 -43 154 -100q59 -59 59 -121q0 -60 -42.5 -102.5t-104.5 -42.5q-61 0 -101 43q-36 40 -75 63l-224 -571q94 3 185 49q60 29 100 29q53 0 87 -37 t34 -92q0 -36 -18 -69t-48 -52q-151 -94 -338 -94q-48 0 -94 6l-33 -84q-41 -103 -116 -103q-54 0 -80 39t-2 99l39 100q-132 62 -205.5 179.5t-73.5 275.5zM440 672q0 -122 86 -195l217 553q-131 -13 -217 -119.5t-86 -238.5z" />
<glyph unicode="&#xa3;" horiz-adv-x="1318" d="M-6 115q0 91 104 123l105 32l73 277h-2q-54 0 -92.5 37.5t-38.5 91.5t38.5 92.5t92.5 38.5h72l51 192q53 199 164 310q145 145 383 145q214 0 338 -117q66 -62 66 -127q0 -68 -44 -113.5t-112 -45.5q-60 0 -105 45q-31 31 -67.5 49t-97.5 18q-83 0 -140 -57 q-56 -56 -84 -160l-39 -139h320q54 0 92.5 -38.5t38.5 -92.5t-38.5 -91.5t-92.5 -37.5h-387l-74 -275h461q57 0 97 -40t40 -97t-40 -96t-97 -39h-858q-56 0 -91.5 33.5t-35.5 81.5z" />
<glyph unicode="&#xa5;" horiz-adv-x="1456" d="M119 299q0 46 32 78.5t78 32.5h310l32 127h-249q-46 0 -78.5 32t-32.5 78t32.5 78.5t78.5 32.5h225l-189 420q-1 2 -8.5 20t-9.5 24t-6.5 20.5t-6 26.5t-1.5 25q0 66 45 109t112 43q111 0 150 -100l170 -443l422 455q41 44 75.5 67t75.5 23q61 0 95 -34.5t34 -94.5 q0 -64 -57 -125l-434 -436h170q46 0 78 -32.5t32 -78.5t-32 -78t-78 -32h-310l-32 -127h250q46 0 78 -32.5t32 -78.5t-32 -78.5t-78 -32.5h-310l-12 -43q-20 -74 -66 -115.5t-104 -41.5q-77 0 -112.5 49.5t-10.5 142.5l2 8h-250q-46 0 -78 32.5t-32 78.5z" />
<glyph unicode="&#xa7;" horiz-adv-x="1294" d="M104 221q0 54 36.5 91.5t88.5 37.5q50 0 86 -28q75 -59 141 -83t140 -24q66 0 104.5 21.5t38.5 56.5q0 33 -43 55t-166 55q-73 20 -121.5 36t-103 41.5t-86.5 54t-53 69.5t-21 92q0 101 71 171.5t208 99.5q-74 71 -74 170q0 140 131.5 230.5t335.5 90.5q103 0 201 -28 t168 -74q63 -43 63 -111q0 -55 -38 -92t-93 -37q-40 0 -74 23q-135 86 -247 86q-70 0 -110 -21t-40 -57q0 -33 43.5 -55.5t165.5 -55.5q73 -20 121.5 -36t103 -41.5t86.5 -54t53 -69.5t21 -92q0 -101 -70.5 -171t-207.5 -99q73 -70 73 -170q0 -139 -129.5 -230t-326.5 -91 q-259 0 -426 135q-50 43 -50 104zM436 750q0 -39 40.5 -64t135.5 -53q139 -43 205 -43q54 0 93.5 29t39.5 71q0 39 -40.5 64t-135.5 53q-139 43 -205 43q-54 0 -93.5 -29t-39.5 -71z" />
<glyph unicode="&#xa8;" d="M346 1354l2 8q13 66 65.5 105.5t121.5 39.5q68 0 107.5 -42.5t27.5 -102.5l-2 -8q-13 -68 -65 -108t-122 -40q-71 0 -110.5 42t-24.5 106zM784 1354l2 8q13 66 65.5 105.5t121.5 39.5q68 0 107.5 -42.5t27.5 -102.5l-2 -8q-13 -68 -64.5 -108t-121.5 -40q-71 0 -111 42 t-25 106z" />
<glyph unicode="&#xa9;" horiz-adv-x="1699" d="M152 713v4q0 149 58 285.5t157 236.5t237 159.5t291 59.5t290.5 -59t235.5 -158t155.5 -235t57.5 -285v-4q0 -149 -58 -285.5t-157 -237t-237 -160t-291 -59.5t-290.5 59t-235.5 158.5t-155.5 235.5t-57.5 285zM238 713q0 -134 50 -255t136 -209t208 -140t259 -52 q138 0 260.5 52.5t209 141.5t137 210.5t50.5 255.5v4q0 179 -84.5 329t-235 238t-333.5 88q-138 0 -260.5 -52.5t-209 -141t-137 -210t-50.5 -255.5v-4zM498 723v4q0 171 115.5 289.5t293.5 118.5q157 0 267 -82q38 -26 38 -74q0 -37 -25.5 -62.5t-60.5 -25.5q-29 0 -57 22 q-76 58 -162 58q-97 0 -161 -70.5t-64 -171.5v-4q0 -100 63.5 -171t161.5 -71q93 0 174 68q24 20 54 20q34 0 59 -25t25 -59q0 -36 -27 -59q-61 -55 -128.5 -82t-162.5 -27q-172 0 -287.5 117t-115.5 287z" />
<glyph unicode="&#xaa;" horiz-adv-x="798" d="M98 635q0 28 20 47.5t48 19.5h459q28 0 47.5 -19.5t19.5 -47.5t-19.5 -48t-47.5 -20h-459q-28 0 -48 20t-20 48zM209 981q0 102 73.5 160.5t186.5 58.5q83 0 172 -29l4 15q6 21 6 35q0 75 -116 75q-45 0 -103 -14q-30 -6 -37 -6q-28 0 -44.5 16.5t-16.5 48.5q0 55 55 74 q83 27 182 27q120 0 182 -48.5t62 -138.5q0 -47 -12 -90l-70 -256q-10 -40 -36 -63t-60 -23q-39 0 -58 22.5t-14 55.5q-79 -82 -180 -82q-78 0 -127 45.5t-49 116.5zM379 1001q0 -28 22 -46.5t58 -18.5q52 0 95.5 36t55.5 87l4 16q-61 21 -112 21q-55 0 -89 -26t-34 -69z " />
<glyph unicode="&#xab;" horiz-adv-x="1316" d="M109 506q0 46 41 84l346 342q65 61 118 61t85 -30t32 -82q0 -60 -43 -97l-299 -282l123 -234q20 -41 20 -80q0 -53 -38 -89t-93 -36q-47 0 -73.5 18.5t-46.5 57.5l-140 277q-1 3 -10 20.5t-12 24t-6.5 20t-3.5 25.5zM662 506q0 47 40 84l347 342q65 61 118 61t85 -30 t32 -82q0 -60 -43 -97l-299 -282l123 -234q20 -41 20 -80q0 -53 -38 -89t-93 -36q-47 0 -73.5 18.5t-46.5 57.5l-140 277q-1 3 -10 20.5t-12 24t-6.5 20t-3.5 25.5z" />
<glyph unicode="&#xad;" horiz-adv-x="843" d="M119 635q0 61 43.5 105t105.5 44h357q61 0 105 -44t44 -105q0 -62 -44 -106t-105 -44h-357q-61 0 -105 44t-44 106z" />
<glyph unicode="&#xae;" horiz-adv-x="753" d="M174 1094v2q0 147 104 252.5t252 105.5q150 0 253.5 -104.5t103.5 -251.5v-2q0 -147 -104.5 -253t-252.5 -106q-150 0 -253 105t-103 252zM215 1094q0 -132 90.5 -225t224.5 -93q132 0 224 94t92 226v2q0 132 -91 224.5t-225 92.5q-132 0 -223.5 -93.5t-91.5 -225.5v-2z M375 958v279q0 22 15.5 37.5t37.5 15.5h127q73 0 115.5 -32.5t42.5 -96.5q0 -79 -70 -112l47 -56q15 -18 15 -37q0 -21 -16 -36t-38 -15q-23 0 -41 21l-80 100h-49v-68q0 -22 -15.5 -37.5t-37.5 -15.5t-37.5 15.5t-15.5 37.5zM481 1110h68q27 0 42 12t15 33q0 45 -57 45h-68 v-90z" />
<glyph unicode="&#xaf;" d="M342 1335q0 44 32.5 76.5t76.5 32.5h544q44 0 76.5 -32.5t32.5 -76.5t-32 -75t-77 -31h-544q-45 0 -77 31t-32 75z" />
<glyph unicode="&#xb0;" horiz-adv-x="911" d="M180 1059q0 102 51.5 192t142 145.5t197.5 55.5q150 0 240 -88t90 -227q0 -102 -51.5 -192.5t-142 -146t-197.5 -55.5q-150 0 -240 88.5t-90 227.5zM362 1065q0 -72 42.5 -117t111.5 -45q86 0 144.5 71t58.5 156q0 72 -42.5 117t-111.5 45q-86 0 -144.5 -71t-58.5 -156z " />
<glyph unicode="&#xb1;" horiz-adv-x="1310" d="M35 129q0 -54 37.5 -91.5t91.5 -37.5h758q54 0 91.5 37.5t37.5 91.5t-37.5 91.5t-91.5 37.5h-758q-54 0 -91.5 -37.5t-37.5 -91.5zM244 911q0 55 39 94t94 39h274l56 211q20 71 62.5 110.5t94.5 39.5q70 0 101.5 -48.5t7.5 -137.5l-45 -175h200q56 0 95 -39t39 -94 t-39 -94t-95 -39h-274l-55 -215q-20 -70 -63 -109.5t-95 -39.5q-70 0 -101.5 48.5t-7.5 137.5l46 178h-201q-55 0 -94 39t-39 94z" />
<glyph unicode="&#xb4;" d="M494 1264q0 28 26 57l156 172q22 23 35.5 35t35.5 22.5t46 10.5q60 0 117 -31.5t57 -69.5q0 -33 -45 -67l-160 -119q-91 -68 -182 -68q-39 0 -62.5 15.5t-23.5 42.5z" />
<glyph unicode="&#xb6;" horiz-adv-x="1226" d="M178 868q0 121 44.5 222.5t131.5 179t227 121t320 43.5h221q71 0 107.5 -47t19.5 -111l-301 -1131q-20 -74 -67 -115.5t-109 -41.5q-80 0 -116.5 55t-10.5 150l64 241q-255 5 -393 113.5t-138 320.5z" />
<glyph unicode="&#xb7;" horiz-adv-x="653" d="M162 629l2 12q14 76 69 123t132 47q79 0 122 -48.5t31 -121.5l-2 -12q-12 -74 -68 -122t-133 -48q-79 0 -122 48.5t-31 121.5z" />
<glyph unicode="&#xb8;" d="M129 -238q0 32 31 66l184 192h229l-198 -296q-43 -66 -107 -66q-45 0 -92 33t-47 71z" />
<glyph unicode="&#xba;" horiz-adv-x="823" d="M100 635q0 28 20 47.5t48 19.5h479q28 0 48 -19.5t20 -47.5t-20 -48t-48 -20h-479q-28 0 -48 20t-20 48zM213 1096q0 139 101.5 243.5t246.5 104.5q132 0 211.5 -78t79.5 -201q0 -139 -101.5 -243.5t-246.5 -104.5q-132 0 -211.5 78t-79.5 201zM381 1102 q0 -62 35.5 -100.5t93.5 -38.5q76 0 125 61t49 135q0 62 -35.5 100.5t-93.5 38.5q-76 0 -125 -61t-49 -135z" />
<glyph unicode="&#xbb;" horiz-adv-x="1316" d="M27 197q0 59 43 96l299 282l-123 234q-21 43 -21 80q0 53 38 89t93 36q47 0 74 -18.5t47 -57.5l139 -276l10.5 -21l12 -24t7 -20.5t3.5 -25.5q0 -46 -41 -84l-346 -342q-65 -61 -119 -61q-53 0 -84.5 30.5t-31.5 82.5zM580 197q0 59 43 96l299 282l-123 234 q-21 44 -21 80q0 53 38 89t93 36q47 0 74 -18.5t47 -57.5l139 -276l10.5 -21l12 -24t7 -20.5t3.5 -25.5q0 -46 -41 -84l-346 -342q-65 -61 -119 -61q-53 0 -84.5 30.5t-31.5 82.5z" />
<glyph unicode="&#xbf;" horiz-adv-x="1114" d="M49 354q0 180 133 294.5t391 154.5l23 55q18 44 53 72t78 28h16q45 0 68.5 -28.5t17.5 -77.5l-18 -156q-6 -50 -36 -72.5t-97 -31.5q-136 -20 -217.5 -69t-81.5 -128q0 -60 42.5 -93.5t127.5 -33.5q97 0 211 62q68 35 106 35q54 0 89.5 -37.5t35.5 -85.5q0 -80 -69 -131 q-177 -129 -416 -129q-208 0 -332.5 109t-124.5 263zM641 1264l2 12q12 74 68 122t133 48q79 0 122 -48.5t31 -121.5l-2 -12q-14 -76 -68.5 -123t-131.5 -47q-79 0 -122.5 49t-31.5 121z" />
<glyph unicode="&#xc0;" horiz-adv-x="1566" d="M-25 111q0 55 37 104l797 1118q85 123 221 123h6q146 0 172 -149l193 -1086q10 -72 10 -82q0 -62 -46.5 -106.5t-115.5 -44.5q-64 0 -104.5 34.5t-48.5 90.5l-33 209h-635l-164 -236q-69 -98 -160 -98q-61 0 -95 33.5t-34 89.5zM621 600h397l-74 473zM782 1806 q0 37 56.5 70t115.5 33q82 0 109 -76l61 -168q9 -27 9 -43q0 -31 -26.5 -49.5t-72.5 -18.5q-45 0 -71 13.5t-58 54.5l-94 119q-29 42 -29 65z" />
<glyph unicode="&#xc1;" horiz-adv-x="1566" d="M-25 111q0 55 37 104l797 1118q85 123 221 123h6q146 0 172 -149l193 -1086q10 -72 10 -82q0 -62 -46.5 -106.5t-115.5 -44.5q-64 0 -104.5 34.5t-48.5 90.5l-33 209h-635l-164 -236q-69 -98 -160 -98q-61 0 -95 33.5t-34 89.5zM621 600h397l-74 473zM1010 1612 q0 28 26 57l156 172q22 23 35.5 35t35.5 22.5t46 10.5q60 0 117 -31.5t57 -69.5q0 -33 -45 -67l-160 -119q-91 -68 -182 -68q-39 0 -62.5 15.5t-23.5 42.5z" />
<glyph unicode="&#xc2;" horiz-adv-x="1566" d="M-25 111q0 55 37 104l797 1118q85 123 221 123h6q146 0 172 -149l193 -1086q10 -72 10 -82q0 -62 -46.5 -106.5t-115.5 -44.5q-64 0 -104.5 34.5t-48.5 90.5l-33 209h-635l-164 -236q-69 -98 -160 -98q-61 0 -95 33.5t-34 89.5zM621 600h397l-74 473zM731 1602 q0 30 35 65l168 162q69 69 160 69h90q104 0 143 -77l78 -152q27 -49 27 -65q0 -24 -19.5 -37t-50.5 -13q-43 0 -66.5 3t-54.5 18.5t-59 46.5l-74 80l-117 -80q-54 -37 -98 -52.5t-96 -15.5q-30 0 -48 12.5t-18 35.5z" />
<glyph unicode="&#xc3;" horiz-adv-x="1566" d="M-25 111q0 55 37 104l797 1118q85 123 221 123h6q146 0 172 -149l193 -1086q10 -72 10 -82q0 -62 -46.5 -106.5t-115.5 -44.5q-64 0 -104.5 34.5t-48.5 90.5l-33 209h-635l-164 -236q-69 -98 -160 -98q-61 0 -95 33.5t-34 89.5zM621 600h397l-74 473zM680 1642 q0 31 16 60q52 93 124.5 149t154.5 56q50 0 85.5 -15t76.5 -45q43 -31 64 -42t44 -11q57 0 111 66q21 24 41 35.5t51 11.5q37 0 61.5 -23.5t24.5 -58.5q0 -31 -16 -60q-52 -93 -124 -148.5t-155 -55.5q-50 0 -84.5 14.5t-77.5 44.5q-43 31 -64 42t-44 11q-58 0 -111 -65 q-21 -24 -41 -35.5t-51 -11.5q-37 0 -61.5 23t-24.5 58z" />
<glyph unicode="&#xc4;" horiz-adv-x="1566" d="M-25 111q0 55 37 104l797 1118q85 123 221 123h6q146 0 172 -149l193 -1086q10 -72 10 -82q0 -62 -46.5 -106.5t-115.5 -44.5q-64 0 -104.5 34.5t-48.5 90.5l-33 209h-635l-164 -236q-69 -98 -160 -98q-61 0 -95 33.5t-34 89.5zM621 600h397l-74 473zM727 1702l2 8 q13 66 65 105.5t121 39.5q68 0 108 -42.5t28 -102.5l-2 -8q-13 -68 -65 -108t-122 -40q-71 0 -110.5 42t-24.5 106zM1165 1702l2 8q13 66 65.5 105.5t121.5 39.5q68 0 107.5 -42.5t27.5 -102.5l-2 -8q-13 -68 -65 -108t-122 -40q-71 0 -110.5 42t-24.5 106z" />
<glyph unicode="&#xc5;" horiz-adv-x="1566" d="M-25 111q0 55 37 104l856 1200q-55 55 -55 148q0 111 80 192.5t194 81.5q102 0 164 -61t62 -152q0 -69 -32.5 -129.5t-88.5 -97.5l209 -1176q10 -72 10 -82q0 -62 -46.5 -106.5t-115.5 -44.5q-64 0 -104.5 34.5t-48.5 90.5l-33 209h-635l-164 -236q-69 -98 -160 -98 q-61 0 -95 33.5t-34 89.5zM621 600h397l-74 473zM944 1565q0 -44 26.5 -73.5t71.5 -29.5q61 0 100.5 48.5t39.5 111.5q0 44 -27 73t-72 29q-61 0 -100 -48t-39 -111z" />
<glyph unicode="&#xc6;" horiz-adv-x="2166" d="M6 100q0 63 47 121l887 1098q92 115 209 115h969q58 0 99.5 -41.5t41.5 -100.5q0 -58 -41 -98.5t-100 -40.5h-625l-78 -293h457q59 0 100 -40.5t41 -98.5t-41 -97.5t-100 -39.5h-533l-82 -303h562q58 0 99.5 -41.5t41.5 -100.5q0 -58 -41 -98.5t-100 -40.5h-768 q-80 0 -117 55.5t-10 149.5l32 117h-483l-194 -244q-38 -46 -72.5 -68t-79.5 -22q-57 0 -89 30.5t-32 81.5zM696 600h336l150 561h-39z" />
<glyph unicode="&#xc7;" horiz-adv-x="1486" d="M137 600q0 113 31.5 222.5t87.5 203.5t136.5 174.5t176 137t209 88.5t232.5 32q282 0 473 -176q65 -61 65 -133q0 -68 -47 -116t-115 -48q-70 0 -110 45q-64 69 -131.5 103t-173.5 34q-97 0 -189.5 -44.5t-162 -118.5t-112 -177t-42.5 -215q0 -154 97.5 -250t252.5 -96 q83 0 135.5 20t134.5 72q60 37 107 37q61 0 102 -43.5t41 -105.5q0 -69 -55 -117q-83 -70 -208 -112t-259 -42h-18l-168 -251q-43 -66 -107 -66q-45 0 -92 33t-47 71q0 32 31 66l170 178q-204 60 -324.5 215.5t-120.5 378.5z" />
<glyph unicode="&#xc8;" horiz-adv-x="1361" d="M80 205l287 1071q20 74 67 116t109 42h770q58 0 99.5 -41.5t41.5 -100.5q0 -58 -41 -98.5t-100 -40.5h-666l-78 -293h498q59 0 100 -40.5t41 -98.5t-41 -97.5t-100 -39.5h-573l-82 -303h602q58 0 99.5 -41.5t41.5 -100.5q0 -58 -41 -98.5t-100 -40.5h-807 q-80 0 -116.5 55t-10.5 150zM686 1786q0 37 56.5 69.5t115.5 32.5q82 0 109 -76l61 -167q8 -24 8 -43q0 -31 -26.5 -49.5t-71.5 -18.5t-71 13.5t-58 54.5l-94 118q-29 42 -29 66z" />
<glyph unicode="&#xc9;" horiz-adv-x="1361" d="M80 205l287 1071q20 74 67 116t109 42h770q58 0 99.5 -41.5t41.5 -100.5q0 -58 -41 -98.5t-100 -40.5h-666l-78 -293h498q59 0 100 -40.5t41 -98.5t-41 -97.5t-100 -39.5h-573l-82 -303h602q58 0 99.5 -41.5t41.5 -100.5q0 -58 -41 -98.5t-100 -40.5h-807 q-80 0 -116.5 55t-10.5 150zM913 1591q0 28 27 58l156 172q22 23 35 35t35 22t46 10q60 0 117 -31t57 -69q0 -34 -45 -68l-159 -118q-91 -68 -183 -68q-39 0 -62.5 15t-23.5 42z" />
<glyph unicode="&#xca;" horiz-adv-x="1361" d="M80 205l287 1071q20 74 67 116t109 42h770q58 0 99.5 -41.5t41.5 -100.5q0 -58 -41 -98.5t-100 -40.5h-666l-78 -293h498q59 0 100 -40.5t41 -98.5t-41 -97.5t-100 -39.5h-573l-82 -303h602q58 0 99.5 -41.5t41.5 -100.5q0 -58 -41 -98.5t-100 -40.5h-807 q-80 0 -116.5 55t-10.5 150zM633 1581q0 31 35 66l168 161q70 70 159 70h90q104 0 144 -78l78 -151q26 -47 26 -66q0 -24 -19 -36.5t-50 -12.5q-32 0 -50.5 1.5t-43 7.5t-45.5 20.5t-42 38.5l-73 79l-117 -79q-54 -37 -98.5 -52.5t-96.5 -15.5q-65 0 -65 47z" />
<glyph unicode="&#xcb;" horiz-adv-x="1361" d="M80 205l287 1071q20 74 67 116t109 42h770q58 0 99.5 -41.5t41.5 -100.5q0 -58 -41 -98.5t-100 -40.5h-666l-78 -293h498q59 0 100 -40.5t41 -98.5t-41 -97.5t-100 -39.5h-573l-82 -303h602q58 0 99.5 -41.5t41.5 -100.5q0 -58 -41 -98.5t-100 -40.5h-807 q-80 0 -116.5 55t-10.5 150zM629 1681l2 9q13 66 65 105.5t121 39.5q68 0 107.5 -42.5t27.5 -102.5l-2 -9q-13 -68 -64.5 -107.5t-121.5 -39.5q-71 0 -110.5 41.5t-24.5 105.5zM1067 1681l2 9q13 66 65 105.5t121 39.5q68 0 108 -42.5t28 -102.5l-2 -9q-13 -68 -65 -107.5 t-122 -39.5q-71 0 -110.5 41.5t-24.5 105.5z" />
<glyph unicode="&#xcc;" horiz-adv-x="688" d="M90 193l295 1095q20 74 67 116t109 42q80 0 116.5 -55t10.5 -150l-295 -1096q-20 -74 -67 -115.5t-109 -41.5q-80 0 -116.5 55t-10.5 150zM324 1786q0 37 56.5 69.5t115.5 32.5q81 0 108 -76l62 -167q8 -24 8 -43q0 -31 -26.5 -49.5t-72.5 -18.5q-45 0 -71 13.5t-58 54.5 l-94 118q-28 40 -28 66z" />
<glyph unicode="&#xcd;" horiz-adv-x="688" d="M90 193l295 1095q20 74 67 116t109 42q80 0 116.5 -55t10.5 -150l-295 -1096q-20 -74 -67 -115.5t-109 -41.5q-80 0 -116.5 55t-10.5 150zM551 1591q0 28 27 58l155 172q32 34 57 50.5t60 16.5q60 0 117 -31t57 -69q0 -34 -45 -68l-160 -118q-91 -68 -182 -68 q-39 0 -62.5 15t-23.5 42z" />
<glyph unicode="&#xce;" horiz-adv-x="688" d="M90 193l295 1095q20 74 67 116t109 42q80 0 116.5 -55t10.5 -150l-295 -1096q-20 -74 -67 -115.5t-109 -41.5q-80 0 -116.5 55t-10.5 150zM270 1581q0 31 35 66l168 161q70 70 160 70h90q103 0 143 -78l78 -151q27 -49 27 -66q0 -24 -19.5 -36.5t-50.5 -12.5 q-43 0 -66.5 3t-54.5 18.5t-59 46.5l-74 79l-117 -79q-54 -37 -98 -52.5t-96 -15.5q-30 0 -48 12t-18 35z" />
<glyph unicode="&#xcf;" horiz-adv-x="688" d="M90 193l295 1095q20 74 67 116t109 42q80 0 116.5 -55t10.5 -150l-295 -1096q-20 -74 -67 -115.5t-109 -41.5q-80 0 -116.5 55t-10.5 150zM268 1681l2 9q13 66 65.5 105.5t121.5 39.5q68 0 107.5 -42.5t27.5 -102.5l-2 -9q-13 -68 -65 -107.5t-122 -39.5 q-71 0 -110.5 41.5t-24.5 105.5zM707 1681l2 9q13 66 65 105.5t121 39.5q68 0 107.5 -42.5t27.5 -102.5l-2 -9q-13 -68 -64.5 -107.5t-121.5 -39.5q-71 0 -110.5 41.5t-24.5 105.5z" />
<glyph unicode="&#xd0;" horiz-adv-x="1632" d="M76 721q0 59 40 99t99 40h82l111 416q20 74 67 116t109 42h284q377 0 562 -185q155 -155 155 -420q0 -330 -235 -565q-264 -264 -752 -264h-350q-80 0 -116.5 55t-10.5 150l100 377h-6q-59 0 -99 40t-40 99zM457 285h178q145 0 269.5 44.5t209.5 129.5q143 143 143 358 q0 144 -83 227q-105 105 -330 105h-154l-78 -289h125q59 0 99.5 -40.5t40.5 -98.5t-40.5 -98.5t-99.5 -40.5h-200z" />
<glyph unicode="&#xd1;" horiz-adv-x="1609" d="M76 193l293 1091q20 76 68 117t118 41h14q129 0 185 -125l364 -795l207 766q20 75 66 116.5t108 41.5q80 0 115.5 -55t9.5 -150l-297 -1102q-40 -147 -170 -147h-6q-71 0 -110.5 28.5t-69.5 90.5l-383 829l-213 -795q-20 -75 -66 -116t-108 -41q-80 0 -115.5 55t-9.5 150 zM682 1622q0 30 16 59q52 93 124.5 149t154.5 56q50 0 86 -14.5t76 -44.5q43 -31 64 -42t44 -11q58 0 111 65q21 24 41 35.5t51 11.5q37 0 61.5 -23.5t24.5 -58.5q0 -30 -16 -59q-52 -93 -124.5 -149t-154.5 -56q-50 0 -84.5 14.5t-77.5 44.5q-44 32 -64.5 43t-43.5 11 q-57 0 -111 -66q-21 -24 -41 -35.5t-51 -11.5q-37 0 -61.5 23.5t-24.5 58.5z" />
<glyph unicode="&#xd2;" horiz-adv-x="1703" d="M137 610q0 160 63.5 313t174 271.5t274 191t350.5 72.5q145 0 268.5 -49t208 -133.5t132 -201.5t47.5 -251q0 -160 -63.5 -313t-174 -271.5t-274 -191t-350.5 -72.5q-145 0 -268.5 49t-208 133.5t-132 201.5t-47.5 251zM465 631q0 -164 95.5 -264.5t268.5 -100.5 q87 0 167 32t139 86t103 123t66.5 145.5t22.5 150.5q0 164 -95.5 264t-268.5 100q-109 0 -204.5 -49t-158.5 -126.5t-99 -172t-36 -188.5zM821 1806q0 37 56.5 70t115.5 33q82 0 109 -76l61 -168q8 -24 8 -43q0 -31 -26.5 -49.5t-71.5 -18.5t-71 13.5t-58 54.5l-94 119 q-29 42 -29 65z" />
<glyph unicode="&#xd3;" horiz-adv-x="1703" d="M137 610q0 160 63.5 313t174 271.5t274 191t350.5 72.5q145 0 268.5 -49t208 -133.5t132 -201.5t47.5 -251q0 -160 -63.5 -313t-174 -271.5t-274 -191t-350.5 -72.5q-145 0 -268.5 49t-208 133.5t-132 201.5t-47.5 251zM465 631q0 -164 95.5 -264.5t268.5 -100.5 q87 0 167 32t139 86t103 123t66.5 145.5t22.5 150.5q0 164 -95.5 264t-268.5 100q-109 0 -204.5 -49t-158.5 -126.5t-99 -172t-36 -188.5zM1049 1612q0 28 26 57l156 172q22 23 35.5 35t35.5 22.5t46 10.5q60 0 117 -31.5t57 -69.5q0 -33 -45 -67l-160 -119 q-91 -68 -182 -68q-39 0 -62.5 15.5t-23.5 42.5z" />
<glyph unicode="&#xd4;" horiz-adv-x="1703" d="M137 610q0 160 63.5 313t174 271.5t274 191t350.5 72.5q145 0 268.5 -49t208 -133.5t132 -201.5t47.5 -251q0 -160 -63.5 -313t-174 -271.5t-274 -191t-350.5 -72.5q-145 0 -268.5 49t-208 133.5t-132 201.5t-47.5 251zM465 631q0 -164 95.5 -264.5t268.5 -100.5 q87 0 167 32t139 86t103 123t66.5 145.5t22.5 150.5q0 164 -95.5 264t-268.5 100q-109 0 -204.5 -49t-158.5 -126.5t-99 -172t-36 -188.5zM768 1602q0 30 35 65l168 162q69 69 159 69h91q104 0 143 -77l78 -152q26 -47 26 -65q0 -24 -19.5 -37t-49.5 -13q-43 0 -66.5 3 t-54.5 18.5t-59 46.5l-74 80l-117 -80q-54 -37 -98 -52.5t-96 -15.5q-30 0 -48 12.5t-18 35.5z" />
<glyph unicode="&#xd5;" horiz-adv-x="1703" d="M137 610q0 160 63.5 313t174 271.5t274 191t350.5 72.5q145 0 268.5 -49t208 -133.5t132 -201.5t47.5 -251q0 -160 -63.5 -313t-174 -271.5t-274 -191t-350.5 -72.5q-145 0 -268.5 49t-208 133.5t-132 201.5t-47.5 251zM465 631q0 -164 95.5 -264.5t268.5 -100.5 q87 0 167 32t139 86t103 123t66.5 145.5t22.5 150.5q0 164 -95.5 264t-268.5 100q-109 0 -204.5 -49t-158.5 -126.5t-99 -172t-36 -188.5zM719 1642q0 31 16 60q52 93 124.5 149t154.5 56q50 0 85.5 -15t76.5 -45q43 -31 64 -42t44 -11q57 0 111 66q21 24 41 35.5t51 11.5 q37 0 61.5 -23.5t24.5 -58.5q0 -29 -17 -60q-52 -93 -124 -148.5t-154 -55.5q-50 0 -84.5 14.5t-77.5 44.5q-43 31 -64 42t-44 11q-58 0 -111 -65q-21 -24 -41 -35.5t-51 -11.5q-37 0 -61.5 23t-24.5 58z" />
<glyph unicode="&#xd6;" horiz-adv-x="1703" d="M137 610q0 160 63.5 313t174 271.5t274 191t350.5 72.5q145 0 268.5 -49t208 -133.5t132 -201.5t47.5 -251q0 -160 -63.5 -313t-174 -271.5t-274 -191t-350.5 -72.5q-145 0 -268.5 49t-208 133.5t-132 201.5t-47.5 251zM465 631q0 -164 95.5 -264.5t268.5 -100.5 q87 0 167 32t139 86t103 123t66.5 145.5t22.5 150.5q0 164 -95.5 264t-268.5 100q-109 0 -204.5 -49t-158.5 -126.5t-99 -172t-36 -188.5zM764 1702l2 8q13 66 65 105.5t121 39.5q68 0 107.5 -42.5t27.5 -102.5l-2 -8q-13 -68 -64.5 -108t-121.5 -40q-71 0 -110.5 42 t-24.5 106zM1202 1702l2 8q13 66 65.5 105.5t121.5 39.5q68 0 107.5 -42.5t27.5 -102.5l-2 -8q-13 -68 -65 -108t-122 -40q-71 0 -110.5 42t-24.5 106z" />
<glyph unicode="&#xd7;" horiz-adv-x="1310" d="M156 391q0 64 55 109l309 239l-158 211q-32 44 -32 92q0 60 41.5 102t101.5 42q75 0 119 -64l147 -213l303 244q36 31 86 31q56 0 95 -39t39 -94q0 -63 -56 -109l-309 -240l158 -210q32 -44 32 -93q0 -60 -41.5 -101.5t-101.5 -41.5q-75 0 -119 63l-147 213l-303 -243 q-36 -31 -86 -31q-55 0 -94 39t-39 94z" />
<glyph unicode="&#xd8;" horiz-adv-x="1703" d="M45 66q0 28 16.5 51t47.5 51l118 102q-90 146 -90 340q0 160 63.5 313t174 271.5t274 191t350.5 72.5q270 0 453 -162l139 117q54 43 97 43t67.5 -25t24.5 -63q0 -28 -16.5 -51t-47.5 -51l-141 -123q80 -144 80 -320q0 -160 -63.5 -313t-174 -271.5t-274 -191 t-350.5 -72.5q-257 0 -439 148l-121 -103q-54 -43 -96 -43q-43 0 -67.5 25.5t-24.5 63.5zM453 631q0 -90 26 -158l738 623q-99 86 -254 86q-108 0 -205.5 -51t-163 -131.5t-103.5 -178t-38 -190.5zM590 322q92 -70 239 -70q108 0 205.5 51t163 131.5t103.5 178t38 190.5 q0 74 -20 133z" />
<glyph unicode="&#xd9;" horiz-adv-x="1564" d="M166 461q0 89 35 229l159 598q20 74 67.5 116t109.5 42q80 0 116.5 -55t10.5 -150l-156 -579q-23 -94 -23 -156q0 -108 65.5 -173t184.5 -65q141 0 234 90q93 93 139 267l178 663q20 74 67 116t109 42q80 0 116.5 -55t10.5 -150l-178 -661q-74 -279 -221 -426 q-177 -177 -488 -177q-250 0 -393 128t-143 356zM750 1786q0 37 56.5 69.5t115.5 32.5q81 0 108 -76l62 -167q8 -24 8 -43q0 -31 -26.5 -49.5t-72.5 -18.5q-45 0 -71 13.5t-58 54.5l-94 118q-28 40 -28 66z" />
<glyph unicode="&#xda;" horiz-adv-x="1564" d="M166 461q0 89 35 229l159 598q20 74 67.5 116t109.5 42q80 0 116.5 -55t10.5 -150l-156 -579q-23 -94 -23 -156q0 -108 65.5 -173t184.5 -65q141 0 234 90q93 93 139 267l178 663q20 74 67 116t109 42q80 0 116.5 -55t10.5 -150l-178 -661q-74 -279 -221 -426 q-177 -177 -488 -177q-250 0 -393 128t-143 356zM977 1591q0 28 27 58l155 172q32 34 57 50.5t60 16.5q60 0 117 -31t57 -69q0 -34 -45 -68l-160 -118q-91 -68 -182 -68q-39 0 -62.5 15t-23.5 42z" />
<glyph unicode="&#xdb;" horiz-adv-x="1564" d="M166 461q0 89 35 229l159 598q20 74 67.5 116t109.5 42q80 0 116.5 -55t10.5 -150l-156 -579q-23 -94 -23 -156q0 -108 65.5 -173t184.5 -65q141 0 234 90q93 93 139 267l178 663q20 74 67 116t109 42q80 0 116.5 -55t10.5 -150l-178 -661q-74 -279 -221 -426 q-177 -177 -488 -177q-250 0 -393 128t-143 356zM696 1581q0 31 35 66l168 161q70 70 160 70h90q103 0 143 -78l78 -151q27 -49 27 -66q0 -24 -19.5 -36.5t-50.5 -12.5q-43 0 -66.5 3t-54.5 18.5t-59 46.5l-74 79l-117 -79q-54 -37 -98 -52.5t-96 -15.5q-30 0 -48 12t-18 35 z" />
<glyph unicode="&#xdc;" horiz-adv-x="1564" d="M166 461q0 89 35 229l159 598q20 74 67.5 116t109.5 42q80 0 116.5 -55t10.5 -150l-156 -579q-23 -94 -23 -156q0 -108 65.5 -173t184.5 -65q141 0 234 90q93 93 139 267l178 663q20 74 67 116t109 42q80 0 116.5 -55t10.5 -150l-178 -661q-74 -279 -221 -426 q-177 -177 -488 -177q-250 0 -393 128t-143 356zM692 1681l2 9q13 66 65.5 105.5t121.5 39.5q68 0 107.5 -42.5t27.5 -102.5l-2 -9q-13 -68 -65 -107.5t-122 -39.5q-71 0 -110.5 41.5t-24.5 105.5zM1130 1681l3 9q13 66 65 105.5t121 39.5q68 0 107.5 -42.5t27.5 -102.5 l-2 -9q-13 -68 -64.5 -107.5t-121.5 -39.5q-71 0 -111 41.5t-25 105.5z" />
<glyph unicode="&#xdd;" horiz-adv-x="1331" d="M205 1296q0 64 48 107t122 43q58 0 94 -30.5t59 -92.5l183 -492l479 527q84 90 170 90q61 0 96 -34.5t35 -94.5q0 -68 -53 -125l-635 -670l-103 -379q-20 -74 -67 -115.5t-109 -41.5q-80 0 -116.5 55t-10.5 150l97 360l-258 625q-31 78 -31 118zM844 1591q0 29 26 58 l156 172q32 34 57 50.5t60 16.5q60 0 117 -31t57 -69q0 -34 -45 -68l-160 -118q-91 -68 -182 -68q-39 0 -62.5 15t-23.5 42z" />
<glyph unicode="&#xde;" horiz-adv-x="1411" d="M76 193l295 1095q20 74 67 116t109 42q80 0 116.5 -55t10.5 -150l-4 -16h139q156 0 265 -34.5t186 -111.5q110 -110 110 -295q0 -173 -93 -301.5t-249.5 -193t-353.5 -64.5h-273l-22 -80q-20 -74 -67 -115.5t-109 -41.5q-80 0 -116.5 55t-10.5 150zM475 502h215 q159 0 254.5 68t95.5 188q0 72 -47 119q-63 63 -196 63h-205z" />
<glyph unicode="&#xdf;" horiz-adv-x="1294" d="M45 193l225 837q59 218 179 338q141 141 370 141q207 0 326 -109t119 -278q0 -145 -83.5 -244.5t-232.5 -146.5q213 -91 213 -285q0 -193 -149 -322.5t-389 -129.5q-69 0 -103.5 33.5t-34.5 91.5q0 47 29.5 80t79.5 37q274 23 274 219q0 98 -116 147q-52 22 -76.5 46.5 t-24.5 72.5q0 94 105 129q215 72 215 242q0 73 -46.5 114t-115.5 41q-175 0 -236 -233l-229 -869q-20 -75 -66 -116t-108 -41q-80 0 -115.5 55t-9.5 150z" />
<glyph unicode="&#xe0;" horiz-adv-x="1204" d="M14 274q0 185 133.5 290.5t339.5 105.5q155 0 310 -49l4 14q12 50 12 82q0 129 -207 129q-95 0 -190 -25q-36 -8 -51 -8q-53 0 -88 35.5t-35 89.5q0 44 26.5 76t67.5 45q158 51 336 51q219 0 331.5 -87.5t112.5 -250.5q0 -72 -24 -166l-123 -461q-20 -75 -66 -116 t-108 -41q-142 0 -133 139q-138 -147 -328 -147q-142 0 -231 82.5t-89 211.5zM324 309q0 -52 39 -84t104 -32q94 0 171.5 64.5t104.5 156.5l9 28q-103 39 -205 39q-98 0 -160.5 -47t-62.5 -125zM479 1458q0 37 56.5 70t115.5 33q82 0 109 -76l61 -168q8 -24 8 -43 q0 -31 -26.5 -49.5t-71.5 -18.5t-71 13.5t-58 54.5l-94 119q-29 42 -29 65z" />
<glyph unicode="&#xe1;" horiz-adv-x="1204" d="M14 274q0 185 133.5 290.5t339.5 105.5q155 0 310 -49l4 14q12 50 12 82q0 129 -207 129q-95 0 -190 -25q-36 -8 -51 -8q-53 0 -88 35.5t-35 89.5q0 44 26.5 76t67.5 45q158 51 336 51q219 0 331.5 -87.5t112.5 -250.5q0 -72 -24 -166l-123 -461q-20 -75 -66 -116 t-108 -41q-142 0 -133 139q-138 -147 -328 -147q-142 0 -231 82.5t-89 211.5zM324 309q0 -52 39 -84t104 -32q94 0 171.5 64.5t104.5 156.5l9 28q-103 39 -205 39q-98 0 -160.5 -47t-62.5 -125zM707 1264q0 28 26 57l156 172q22 23 35.5 35t35.5 22.5t46 10.5 q60 0 117 -31.5t57 -69.5q0 -33 -45 -67l-160 -119q-91 -68 -182 -68q-39 0 -62.5 15.5t-23.5 42.5z" />
<glyph unicode="&#xe2;" horiz-adv-x="1204" d="M14 274q0 185 133.5 290.5t339.5 105.5q155 0 310 -49l4 14q12 50 12 82q0 129 -207 129q-95 0 -190 -25q-36 -8 -51 -8q-53 0 -88 35.5t-35 89.5q0 44 26.5 76t67.5 45q158 51 336 51q219 0 331.5 -87.5t112.5 -250.5q0 -72 -24 -166l-123 -461q-20 -75 -66 -116 t-108 -41q-142 0 -133 139q-138 -147 -328 -147q-142 0 -231 82.5t-89 211.5zM324 309q0 -52 39 -84t104 -32q94 0 171.5 64.5t104.5 156.5l9 28q-103 39 -205 39q-98 0 -160.5 -47t-62.5 -125zM426 1253q0 31 35 66l168 162q69 69 159 69h91q104 0 143 -77l78 -152 q26 -47 26 -66q0 -24 -19 -36.5t-50 -12.5q-43 0 -66.5 3t-54.5 18.5t-59 46.5l-74 80l-117 -80q-54 -37 -98 -52.5t-96 -15.5q-30 0 -48 12t-18 35z" />
<glyph unicode="&#xe3;" horiz-adv-x="1204" d="M14 274q0 185 133.5 290.5t339.5 105.5q155 0 310 -49l4 14q12 50 12 82q0 129 -207 129q-95 0 -190 -25q-36 -8 -51 -8q-53 0 -88 35.5t-35 89.5q0 44 26.5 76t67.5 45q158 51 336 51q219 0 331.5 -87.5t112.5 -250.5q0 -72 -24 -166l-123 -461q-20 -75 -66 -116 t-108 -41q-142 0 -133 139q-138 -147 -328 -147q-142 0 -231 82.5t-89 211.5zM324 309q0 -52 39 -84t104 -32q94 0 171.5 64.5t104.5 156.5l9 28q-103 39 -205 39q-98 0 -160.5 -47t-62.5 -125zM377 1294q0 31 16 60q52 93 124.5 149t154.5 56q50 0 85.5 -15t76.5 -45 q43 -31 64 -42t44 -11q58 0 111 65q21 25 41 36.5t51 11.5q37 0 61.5 -23.5t24.5 -58.5q0 -29 -17 -60q-53 -93 -124.5 -149t-153.5 -56q-49 0 -84 14.5t-78 45.5t-64 42t-44 11q-58 0 -111 -65q-21 -25 -41 -36.5t-51 -11.5q-37 0 -61.5 23.5t-24.5 58.5z" />
<glyph unicode="&#xe4;" horiz-adv-x="1204" d="M14 274q0 185 133.5 290.5t339.5 105.5q155 0 310 -49l4 14q12 50 12 82q0 129 -207 129q-95 0 -190 -25q-36 -8 -51 -8q-53 0 -88 35.5t-35 89.5q0 44 26.5 76t67.5 45q158 51 336 51q219 0 331.5 -87.5t112.5 -250.5q0 -72 -24 -166l-123 -461q-20 -75 -66 -116 t-108 -41q-142 0 -133 139q-138 -147 -328 -147q-142 0 -231 82.5t-89 211.5zM324 309q0 -52 39 -84t104 -32q94 0 171.5 64.5t104.5 156.5l9 28q-103 39 -205 39q-98 0 -160.5 -47t-62.5 -125zM422 1354l2 8q13 66 65 105.5t121 39.5q68 0 107.5 -42.5t27.5 -102.5l-2 -8 q-13 -68 -64.5 -108t-121.5 -40q-71 0 -110.5 42t-24.5 106zM860 1354l2 8q13 66 65.5 105.5t121.5 39.5q68 0 107.5 -42.5t27.5 -102.5l-2 -8q-13 -68 -65 -108t-122 -40q-71 0 -110.5 42t-24.5 106z" />
<glyph unicode="&#xe5;" horiz-adv-x="1204" d="M14 274q0 185 133.5 290.5t339.5 105.5q155 0 310 -49l4 14q12 50 12 82q0 129 -207 129q-95 0 -190 -25q-36 -8 -51 -8q-53 0 -88 35.5t-35 89.5q0 44 26.5 76t67.5 45q158 51 336 51q219 0 331.5 -87.5t112.5 -250.5q0 -72 -24 -166l-123 -461q-20 -75 -66 -116 t-108 -41q-142 0 -133 139q-138 -147 -328 -147q-142 0 -231 82.5t-89 211.5zM324 309q0 -52 39 -84t104 -32q94 0 171.5 64.5t104.5 156.5l9 28q-103 39 -205 39q-98 0 -160.5 -47t-62.5 -125zM582 1427q0 112 80 193.5t194 81.5q102 0 163.5 -60.5t61.5 -152.5 q0 -112 -80 -193.5t-194 -81.5q-102 0 -163.5 60.5t-61.5 152.5zM713 1430q0 -44 26.5 -73.5t71.5 -29.5q61 0 100 48.5t39 111.5q0 44 -26.5 73t-71.5 29q-61 0 -100 -48t-39 -111z" />
<glyph unicode="&#xe6;" horiz-adv-x="1925" d="M14 274q0 185 133.5 290.5t339.5 105.5q155 0 310 -49l4 14q12 50 12 82q0 129 -207 129q-95 0 -190 -25q-36 -8 -51 -8q-53 0 -88 35.5t-35 89.5q0 44 26.5 76t67.5 45q158 51 336 51q268 0 360 -162q170 170 395 170q201 0 320 -120.5t119 -307.5q0 -52 -13 -112 q-31 -138 -149 -138h-645q8 -101 69.5 -158t180.5 -57q93 0 170 43q56 29 94 29q50 0 83.5 -33.5t33.5 -85.5q0 -65 -60 -104q-151 -99 -356 -99q-142 0 -249.5 53.5t-168.5 157.5q-200 -206 -491 -206q-166 0 -258.5 80t-92.5 214zM324 309q0 -53 42 -84.5t121 -31.5 q75 0 163 37t153 102q-9 43 -12 94q-124 55 -244 55q-98 0 -160.5 -47t-62.5 -125zM1085 635h478q10 33 10 72q0 72 -44.5 116.5t-135.5 44.5q-104 0 -186.5 -63.5t-121.5 -169.5z" />
<glyph unicode="&#xe7;" horiz-adv-x="1146" d="M86 471q0 175 88 324.5t237 236t322 86.5q229 0 371 -137q57 -53 57 -121q0 -60 -43 -102.5t-106 -42.5q-64 0 -103 45q-76 92 -200 92t-220 -115t-96 -266q0 -104 61 -167.5t154 -63.5q100 0 189 61q55 35 92 35q54 0 89.5 -37.5t35.5 -91.5q0 -62 -47 -103 q-155 -126 -361 -129l-168 -251q-43 -66 -106 -66q-45 0 -92 33t-47 71q0 33 30 66l174 180q-145 53 -228 174t-83 289z" />
<glyph unicode="&#xe8;" horiz-adv-x="1243" d="M84 463q0 95 29.5 189.5t87 178t135 148t181.5 102t218 37.5q209 0 329 -120t120 -308q0 -52 -13 -112q-31 -138 -149 -138h-645q8 -101 69.5 -158t180.5 -57q93 0 170 43q56 29 94 29q50 0 83.5 -33.5t33.5 -85.5q0 -65 -60 -104q-151 -99 -356 -99q-236 0 -372 130.5 t-136 357.5zM403 635h478q10 33 10 72q0 72 -44.5 116.5t-135.5 44.5q-104 0 -186.5 -63.5t-121.5 -169.5zM506 1458q0 37 56.5 70t115.5 33q81 0 108 -76l62 -168q8 -24 8 -43q0 -31 -26.5 -49.5t-71.5 -18.5t-71 13.5t-58 54.5l-94 119q-29 42 -29 65z" />
<glyph unicode="&#xe9;" horiz-adv-x="1243" d="M84 463q0 95 29.5 189.5t87 178t135 148t181.5 102t218 37.5q209 0 329 -120t120 -308q0 -52 -13 -112q-31 -138 -149 -138h-645q8 -101 69.5 -158t180.5 -57q93 0 170 43q56 29 94 29q50 0 83.5 -33.5t33.5 -85.5q0 -65 -60 -104q-151 -99 -356 -99q-236 0 -372 130.5 t-136 357.5zM403 635h478q10 33 10 72q0 72 -44.5 116.5t-135.5 44.5q-104 0 -186.5 -63.5t-121.5 -169.5zM733 1264q0 27 27 57l155 172q22 23 35.5 35t35.5 22.5t46 10.5q60 0 117 -31.5t57 -69.5q0 -33 -45 -67l-160 -119q-91 -68 -182 -68q-39 0 -62.5 15.5t-23.5 42.5z " />
<glyph unicode="&#xea;" horiz-adv-x="1243" d="M84 463q0 95 29.5 189.5t87 178t135 148t181.5 102t218 37.5q209 0 329 -120t120 -308q0 -52 -13 -112q-31 -138 -149 -138h-645q8 -101 69.5 -158t180.5 -57q93 0 170 43q56 29 94 29q50 0 83.5 -33.5t33.5 -85.5q0 -65 -60 -104q-151 -99 -356 -99q-236 0 -372 130.5 t-136 357.5zM403 635h478q10 33 10 72q0 72 -44.5 116.5t-135.5 44.5q-104 0 -186.5 -63.5t-121.5 -169.5zM455 1253q0 32 34 66l168 162q69 69 160 69h90q105 0 144 -77l77 -152q27 -49 27 -66q0 -24 -19.5 -36.5t-50.5 -12.5q-43 0 -66.5 3t-54.5 18.5t-59 46.5l-74 80 l-116 -80q-54 -37 -98.5 -52.5t-96.5 -15.5q-65 0 -65 47z" />
<glyph unicode="&#xeb;" horiz-adv-x="1243" d="M84 463q0 95 29.5 189.5t87 178t135 148t181.5 102t218 37.5q209 0 329 -120t120 -308q0 -52 -13 -112q-31 -138 -149 -138h-645q8 -101 69.5 -158t180.5 -57q93 0 170 43q56 29 94 29q50 0 83.5 -33.5t33.5 -85.5q0 -65 -60 -104q-151 -99 -356 -99q-236 0 -372 130.5 t-136 357.5zM403 635h478q10 33 10 72q0 72 -44.5 116.5t-135.5 44.5q-104 0 -186.5 -63.5t-121.5 -169.5zM451 1354l2 8q13 66 65 105.5t121 39.5q68 0 107.5 -42.5t27.5 -102.5l-2 -8q-13 -68 -64.5 -108t-121.5 -40q-71 0 -110.5 42t-24.5 106zM889 1354l2 8 q13 66 65 105.5t121 39.5q68 0 107.5 -42.5t27.5 -102.5l-2 -8q-13 -68 -64.5 -108t-121.5 -40q-71 0 -110.5 42t-24.5 106z" />
<glyph unicode="&#xec;" horiz-adv-x="618" d="M57 193l205 759q20 75 66 116.5t108 41.5q80 0 115.5 -55t9.5 -150l-205 -760q-20 -75 -66 -116t-108 -41q-80 0 -115.5 55t-9.5 150zM201 1458q0 37 56.5 70t115.5 33q81 0 108 -76l62 -168q8 -24 8 -43q0 -31 -26.5 -49.5t-71.5 -18.5t-71 13.5t-58 54.5l-95 119 q-28 40 -28 65z" />
<glyph unicode="&#xed;" horiz-adv-x="618" d="M57 193l205 759q20 75 66 116.5t108 41.5q80 0 115.5 -55t9.5 -150l-205 -760q-20 -75 -66 -116t-108 -41q-80 0 -115.5 55t-9.5 150zM428 1264q0 27 27 57l155 172q22 23 35.5 35t35.5 22.5t46 10.5q60 0 117 -31.5t57 -69.5q0 -33 -45 -67l-160 -119q-91 -68 -182 -68 q-39 0 -62.5 15.5t-23.5 42.5z" />
<glyph unicode="&#xee;" horiz-adv-x="618" d="M57 193l205 759q20 75 66 116.5t108 41.5q80 0 115.5 -55t9.5 -150l-205 -760q-20 -75 -66 -116t-108 -41q-80 0 -115.5 55t-9.5 150zM150 1253q0 32 34 66l168 162q69 69 160 69h90q104 0 143 -77l78 -152q27 -49 27 -66q0 -24 -19.5 -36.5t-50.5 -12.5q-43 0 -66.5 3 t-54.5 18.5t-59 46.5l-74 80l-116 -80q-54 -37 -98.5 -52.5t-96.5 -15.5q-65 0 -65 47z" />
<glyph unicode="&#xef;" horiz-adv-x="618" d="M57 193l205 759q20 75 66 116.5t108 41.5q80 0 115.5 -55t9.5 -150l-205 -760q-20 -75 -66 -116t-108 -41q-80 0 -115.5 55t-9.5 150zM147 1354l3 8q13 66 65 105.5t121 39.5q68 0 107.5 -42.5t27.5 -102.5l-2 -8q-13 -68 -64.5 -108t-121.5 -40q-71 0 -111 42t-25 106z M586 1354l2 8q13 66 65 105.5t121 39.5q68 0 107.5 -42.5t27.5 -102.5l-2 -8q-13 -68 -64.5 -108t-121.5 -40q-71 0 -110.5 42t-24.5 106z" />
<glyph unicode="&#xf0;" horiz-adv-x="1306" d="M78 457q0 147 72.5 271t196 195.5t267.5 71.5q180 0 310 -121l-138 297l-211 -75q-23 -9 -47 -9q-34 0 -56.5 22t-22.5 58q0 29 18.5 52.5t52.5 35.5l195 72q-6 21 -6 53q0 58 38 95.5t97 37.5q96 0 127 -71l8 -19l203 74q20 8 47 8q34 0 57 -22t23 -58q0 -62 -72 -88 l-190 -69l77 -176q90 -206 90 -420q0 -194 -73 -351t-217.5 -251.5t-337.5 -94.5q-226 0 -367 133t-141 349zM375 475q0 -110 64 -173.5t165 -63.5q127 0 211 92t84 211q0 104 -63.5 168.5t-167.5 64.5q-124 0 -208.5 -88.5t-84.5 -210.5z" />
<glyph unicode="&#xf1;" horiz-adv-x="1267" d="M45 193l203 759q20 75 67 116.5t113 41.5q65 0 102 -36t37 -91q150 135 299 135t236.5 -85.5t87.5 -233.5q0 -65 -37 -209l-119 -445q-20 -75 -66 -116t-108 -41q-80 0 -115.5 55t-9.5 150l111 409q14 54 14 98q0 66 -39.5 101t-111.5 35q-89 0 -150 -59t-88 -161 l-127 -471q-20 -75 -66 -116t-108 -41q-80 0 -115.5 55t-9.5 150zM408 1294q0 31 16 60q53 93 124.5 149t153.5 56q50 0 85.5 -15t76.5 -45q42 -31 63.5 -42t45.5 -11q57 0 110 65q41 48 93 48q37 0 61.5 -23.5t24.5 -58.5q0 -29 -17 -60q-53 -93 -124.5 -149t-153.5 -56 q-49 0 -84 14.5t-78 45.5q-42 31 -63.5 42t-45.5 11q-57 0 -110 -65q-21 -25 -41 -36.5t-51 -11.5q-37 0 -61.5 23.5t-24.5 58.5z" />
<glyph unicode="&#xf2;" horiz-adv-x="1335" d="M86 483q0 121 50.5 237t134.5 203.5t202.5 141t247.5 53.5q241 0 384.5 -142.5t143.5 -365.5q0 -121 -50.5 -237t-134.5 -203.5t-202.5 -141t-247.5 -53.5q-241 0 -384.5 142.5t-143.5 365.5zM391 492q0 -118 65 -184t173 -66q90 0 164.5 58t112.5 140t38 162 q0 118 -64.5 184t-172.5 66q-68 0 -129 -34t-101 -87.5t-63 -116.5t-23 -122zM551 1458q0 37 56.5 70t115.5 33q81 0 108 -76l62 -168q8 -24 8 -43q0 -31 -26.5 -49.5t-71.5 -18.5t-71 13.5t-58 54.5l-94 119q-29 42 -29 65z" />
<glyph unicode="&#xf3;" horiz-adv-x="1335" d="M86 483q0 121 50.5 237t134.5 203.5t202.5 141t247.5 53.5q241 0 384.5 -142.5t143.5 -365.5q0 -121 -50.5 -237t-134.5 -203.5t-202.5 -141t-247.5 -53.5q-241 0 -384.5 142.5t-143.5 365.5zM391 492q0 -118 65 -184t173 -66q90 0 164.5 58t112.5 140t38 162 q0 118 -64.5 184t-172.5 66q-68 0 -129 -34t-101 -87.5t-63 -116.5t-23 -122zM778 1264q0 27 27 57l156 172q22 24 35 35.5t35 22t46 10.5q60 0 117 -31.5t57 -69.5q0 -33 -45 -67l-159 -119q-91 -68 -183 -68q-39 0 -62.5 15.5t-23.5 42.5z" />
<glyph unicode="&#xf4;" horiz-adv-x="1335" d="M86 483q0 121 50.5 237t134.5 203.5t202.5 141t247.5 53.5q241 0 384.5 -142.5t143.5 -365.5q0 -121 -50.5 -237t-134.5 -203.5t-202.5 -141t-247.5 -53.5q-241 0 -384.5 142.5t-143.5 365.5zM391 492q0 -118 65 -184t173 -66q90 0 164.5 58t112.5 140t38 162 q0 118 -64.5 184t-172.5 66q-68 0 -129 -34t-101 -87.5t-63 -116.5t-23 -122zM500 1253q0 31 35 66l167 162q69 69 160 69h90q105 0 144 -77l78 -152q26 -47 26 -66q0 -24 -19.5 -36.5t-50.5 -12.5q-43 0 -66.5 3t-54.5 18.5t-59 46.5l-73 80l-117 -80q-54 -37 -98.5 -52.5 t-96.5 -15.5q-65 0 -65 47z" />
<glyph unicode="&#xf5;" horiz-adv-x="1335" d="M86 483q0 121 50.5 237t134.5 203.5t202.5 141t247.5 53.5q241 0 384.5 -142.5t143.5 -365.5q0 -121 -50.5 -237t-134.5 -203.5t-202.5 -141t-247.5 -53.5q-241 0 -384.5 142.5t-143.5 365.5zM391 492q0 -118 65 -184t173 -66q90 0 164.5 58t112.5 140t38 162 q0 118 -64.5 184t-172.5 66q-68 0 -129 -34t-101 -87.5t-63 -116.5t-23 -122zM451 1294q0 31 16 60q53 93 124.5 149t153.5 56q50 0 85.5 -15t76.5 -45q42 -31 63.5 -42t45.5 -11q57 0 110 65q41 48 93 48q37 0 61.5 -23.5t24.5 -58.5q0 -29 -17 -60q-53 -93 -124.5 -149 t-153.5 -56q-49 0 -84 14.5t-78 45.5q-42 31 -63.5 42t-45.5 11q-57 0 -110 -65q-21 -25 -41 -36.5t-51 -11.5q-37 0 -61.5 23.5t-24.5 58.5z" />
<glyph unicode="&#xf6;" horiz-adv-x="1335" d="M86 483q0 121 50.5 237t134.5 203.5t202.5 141t247.5 53.5q241 0 384.5 -142.5t143.5 -365.5q0 -121 -50.5 -237t-134.5 -203.5t-202.5 -141t-247.5 -53.5q-241 0 -384.5 142.5t-143.5 365.5zM391 492q0 -118 65 -184t173 -66q90 0 164.5 58t112.5 140t38 162 q0 118 -64.5 184t-172.5 66q-68 0 -129 -34t-101 -87.5t-63 -116.5t-23 -122zM496 1354l2 8q13 66 65 105.5t121 39.5q68 0 107.5 -42.5t27.5 -102.5l-2 -8q-13 -68 -64.5 -108t-121.5 -40q-71 0 -110.5 42t-24.5 106zM934 1354l2 8q13 66 65 105.5t121 39.5 q68 0 107.5 -42.5t27.5 -102.5l-2 -8q-13 -68 -64.5 -108t-121.5 -40q-71 0 -110.5 42t-24.5 106z" />
<glyph unicode="&#xf7;" horiz-adv-x="1310" d="M170 721q0 -54 38.5 -92.5t92.5 -38.5h795q54 0 92.5 38.5t38.5 92.5t-38.5 92.5t-92.5 38.5h-795q-54 0 -92.5 -38.5t-38.5 -92.5zM414 258q0 73 57.5 127.5t134.5 54.5q63 0 105.5 -38.5t42.5 -98.5q0 -73 -58 -127.5t-135 -54.5q-63 0 -105 38.5t-42 98.5zM647 1139 q0 73 58 127.5t135 54.5q63 0 105 -38.5t42 -98.5q0 -73 -57.5 -128t-134.5 -55q-63 0 -105.5 39t-42.5 99z" />
<glyph unicode="&#xf8;" horiz-adv-x="1335" d="M55 61q0 48 49 93l56 51q-74 118 -74 278q0 121 50.5 237t134.5 203.5t202.5 141t247.5 53.5q179 0 309 -84l45 43q49 43 96 43q41 0 67 -24t26 -60q0 -46 -50 -92l-47 -43q82 -127 82 -291q0 -121 -50.5 -237t-134.5 -203.5t-202.5 -141t-247.5 -53.5q-186 0 -323 91 l-47 -46q-49 -43 -97 -43q-41 0 -66.5 24t-25.5 60zM381 492q0 -41 6 -78l442 424q-49 24 -122 24q-90 0 -167 -58.5t-118 -143t-41 -168.5zM494 260q60 -29 135 -29q91 0 167.5 58t117 143t40.5 170q0 42 -10 90z" />
<glyph unicode="&#xf9;" horiz-adv-x="1273" d="M84 299q0 65 37 209l119 444q20 75 66 116.5t108 41.5q80 0 115.5 -55t9.5 -150l-111 -409q-14 -54 -14 -99q0 -66 39.5 -100.5t111.5 -34.5q89 0 150 58.5t88 160.5l127 471q20 75 66 116.5t108 41.5q80 0 115.5 -55t9.5 -150l-203 -760q-20 -75 -67 -116t-113 -41 q-65 0 -102 36t-37 91q-150 -135 -299 -135t-236.5 85.5t-87.5 233.5zM522 1458q0 37 56.5 70t115.5 33q82 0 109 -76l61 -168q8 -24 8 -43q0 -31 -26.5 -49.5t-71.5 -18.5t-71 13.5t-58 54.5l-94 119q-29 42 -29 65z" />
<glyph unicode="&#xfa;" horiz-adv-x="1273" d="M84 299q0 65 37 209l119 444q20 75 66 116.5t108 41.5q80 0 115.5 -55t9.5 -150l-111 -409q-14 -54 -14 -99q0 -66 39.5 -100.5t111.5 -34.5q89 0 150 58.5t88 160.5l127 471q20 75 66 116.5t108 41.5q80 0 115.5 -55t9.5 -150l-203 -760q-20 -75 -67 -116t-113 -41 q-65 0 -102 36t-37 91q-150 -135 -299 -135t-236.5 85.5t-87.5 233.5zM750 1264q0 28 26 57l156 172q22 23 35.5 35t35.5 22.5t46 10.5q60 0 117 -31.5t57 -69.5q0 -33 -45 -67l-160 -119q-91 -68 -182 -68q-39 0 -62.5 15.5t-23.5 42.5z" />
<glyph unicode="&#xfb;" horiz-adv-x="1273" d="M84 299q0 65 37 209l119 444q20 75 66 116.5t108 41.5q80 0 115.5 -55t9.5 -150l-111 -409q-14 -54 -14 -99q0 -66 39.5 -100.5t111.5 -34.5q89 0 150 58.5t88 160.5l127 471q20 75 66 116.5t108 41.5q80 0 115.5 -55t9.5 -150l-203 -760q-20 -75 -67 -116t-113 -41 q-65 0 -102 36t-37 91q-150 -135 -299 -135t-236.5 85.5t-87.5 233.5zM469 1253q0 31 35 66l168 162q69 69 159 69h91q104 0 143 -77l78 -152q26 -47 26 -66q0 -24 -19 -36.5t-50 -12.5q-43 0 -66.5 3t-54.5 18.5t-59 46.5l-74 80l-117 -80q-54 -37 -98 -52.5t-96 -15.5 q-30 0 -48 12t-18 35z" />
<glyph unicode="&#xfc;" horiz-adv-x="1273" d="M84 299q0 65 37 209l119 444q20 75 66 116.5t108 41.5q80 0 115.5 -55t9.5 -150l-111 -409q-14 -54 -14 -99q0 -66 39.5 -100.5t111.5 -34.5q89 0 150 58.5t88 160.5l127 471q20 75 66 116.5t108 41.5q80 0 115.5 -55t9.5 -150l-203 -760q-20 -75 -67 -116t-113 -41 q-65 0 -102 36t-37 91q-150 -135 -299 -135t-236.5 85.5t-87.5 233.5zM465 1354l2 8q13 66 65 105.5t121 39.5q68 0 107.5 -42.5t27.5 -102.5l-2 -8q-13 -68 -64.5 -108t-121.5 -40q-71 0 -110.5 42t-24.5 106zM903 1354l2 8q13 66 65.5 105.5t121.5 39.5q68 0 107.5 -42.5 t27.5 -102.5l-2 -8q-13 -68 -65 -108t-122 -40q-71 0 -110.5 42t-24.5 106z" />
<glyph unicode="&#xfd;" horiz-adv-x="1212" d="M-59 -176q0 56 37 95.5t85 39.5q10 0 64 -14q66 -17 92 -17q57 0 107 66l-131 897q-7 40 -7 74q0 61 45.5 103t110.5 42q64 0 106.5 -36t45.5 -97l63 -633l385 668q55 98 158 98q61 0 98 -32.5t37 -88.5q0 -41 -41 -106l-569 -910q-105 -167 -207.5 -237t-237.5 -70 q-95 0 -147 23q-94 40 -94 135zM700 1264q0 27 27 57l156 172q22 24 35 35.5t35 22t46 10.5q60 0 117.5 -31.5t57.5 -69.5q0 -32 -46 -67l-159 -119q-91 -68 -183 -68q-39 0 -62.5 15.5t-23.5 42.5z" />
<glyph unicode="&#xfe;" horiz-adv-x="1380" d="M-43 -135l397 1485q20 75 66 116t108 41q80 0 115.5 -54.5t9.5 -149.5l-88 -324q75 70 148 104.5t161 34.5q185 0 303.5 -126.5t118.5 -344.5q0 -142 -51.5 -268t-135.5 -212.5t-194 -136.5t-225 -50q-123 0 -204.5 46t-139.5 134l-90 -342q-20 -75 -66 -116.5 t-108 -41.5q-80 0 -115.5 55t-9.5 150zM414 475q0 -104 66 -168.5t169 -64.5q129 0 227.5 111.5t98.5 273.5q0 106 -62.5 167.5t-167.5 61.5q-131 0 -231 -113t-100 -268z" />
<glyph unicode="&#xff;" horiz-adv-x="1212" d="M-59 -176q0 56 37 95.5t85 39.5q10 0 64 -14q66 -17 92 -17q57 0 107 66l-131 897q-7 40 -7 74q0 61 45.5 103t110.5 42q64 0 106.5 -36t45.5 -97l63 -633l385 668q55 98 158 98q61 0 98 -32.5t37 -88.5q0 -41 -41 -106l-569 -910q-105 -167 -207.5 -237t-237.5 -70 q-95 0 -147 23q-94 40 -94 135zM418 1354l2 8q13 66 65 105.5t121 39.5q68 0 107.5 -42.5t27.5 -102.5l-2 -8q-13 -68 -64.5 -108t-121.5 -40q-71 0 -110.5 42t-24.5 106zM856 1354l2 8q13 66 65 105.5t121 39.5q68 0 108 -42.5t28 -102.5l-2 -8q-13 -68 -65 -108t-122 -40 q-71 0 -110.5 42t-24.5 106z" />
<glyph unicode="&#x152;" horiz-adv-x="2193" d="M137 604q0 329 236 565q265 265 751 265h1020q58 0 100 -42t42 -100t-41.5 -98.5t-100.5 -40.5h-624l-78 -293h456q59 0 100.5 -40.5t41.5 -98.5t-41.5 -97.5t-100.5 -39.5h-532l-82 -303h561q59 0 100.5 -41.5t41.5 -100.5q0 -58 -41.5 -98.5t-100.5 -40.5h-991 q-202 0 -338 49t-233 146q-146 146 -146 409zM465 616q0 -143 84 -227q104 -104 330 -104h92l233 864h-117q-145 0 -269.5 -44.5t-209.5 -129.5q-69 -69 -106 -162t-37 -197z" />
<glyph unicode="&#x153;" horiz-adv-x="2105" d="M86 483q0 165 83 310.5t230 235t320 89.5q151 0 259 -57t165 -160q82 101 197 159t257 58q209 0 329 -120t120 -308q0 -56 -12 -112q-31 -138 -150 -138h-645q8 -101 69.5 -158t180.5 -57q93 0 170 43q56 29 94 29q50 0 83.5 -33.5t33.5 -85.5q0 -65 -60 -104 q-151 -99 -356 -99q-292 0 -407 201q-79 -94 -190 -147.5t-241 -53.5q-241 0 -385.5 142.5t-144.5 365.5zM391 494q0 -113 65 -182.5t171 -69.5q93 0 167.5 54.5t112 135.5t37.5 168q0 113 -64.5 182.5t-170.5 69.5q-93 0 -167.5 -54.5t-112.5 -135.5t-38 -168zM1266 635 h477q10 33 10 72q0 72 -44.5 116.5t-135.5 44.5q-104 0 -186 -63.5t-121 -169.5z" />
<glyph unicode="&#x178;" horiz-adv-x="1331" d="M205 1296q0 64 48 107t122 43q58 0 94 -30.5t59 -92.5l183 -492l479 527q84 90 170 90q61 0 96 -34.5t35 -94.5q0 -68 -53 -125l-635 -670l-103 -379q-20 -74 -67 -115.5t-109 -41.5q-80 0 -116.5 55t-10.5 150l97 360l-258 625q-31 78 -31 118zM559 1681l2 9 q13 66 65.5 105.5t121.5 39.5q68 0 107.5 -42.5t27.5 -102.5l-2 -9q-13 -68 -65 -107.5t-122 -39.5q-71 0 -110.5 41.5t-24.5 105.5zM997 1681l2 9q13 66 65.5 105.5t121.5 39.5q68 0 107.5 -42.5t27.5 -102.5l-2 -9q-13 -68 -64.5 -107.5t-121.5 -39.5q-71 0 -111 41.5 t-25 105.5z" />
<glyph unicode="&#x2c6;" d="M365 1253q0 32 34 66l168 162q69 69 160 69h90q105 0 144 -77l77 -152q27 -49 27 -66q0 -24 -19.5 -36.5t-50.5 -12.5q-43 0 -66.5 3t-54.5 18.5t-59 46.5l-74 80l-116 -80q-54 -37 -98.5 -52.5t-96.5 -15.5q-65 0 -65 47z" />
<glyph unicode="&#x2dc;" d="M305 1294q0 29 17 60q53 93 124.5 149t153.5 56q50 0 85.5 -15t76.5 -45q43 -31 64 -42t44 -11q58 0 111 65q21 25 41 36.5t51 11.5q37 0 61.5 -23.5t24.5 -58.5q0 -31 -16 -60q-52 -93 -124.5 -149t-154.5 -56q-49 0 -84 14.5t-78 45.5t-64 42t-44 11q-58 0 -111 -65 q-21 -25 -41 -36.5t-51 -11.5q-37 0 -61.5 23.5t-24.5 58.5z" />
<glyph unicode="&#x2000;" horiz-adv-x="954" />
<glyph unicode="&#x2001;" horiz-adv-x="1909" />
<glyph unicode="&#x2002;" horiz-adv-x="954" />
<glyph unicode="&#x2003;" horiz-adv-x="1909" />
<glyph unicode="&#x2004;" horiz-adv-x="636" />
<glyph unicode="&#x2005;" horiz-adv-x="477" />
<glyph unicode="&#x2006;" horiz-adv-x="318" />
<glyph unicode="&#x2007;" horiz-adv-x="318" />
<glyph unicode="&#x2008;" horiz-adv-x="238" />
<glyph unicode="&#x2009;" horiz-adv-x="381" />
<glyph unicode="&#x200a;" horiz-adv-x="106" />
<glyph unicode="&#x2010;" horiz-adv-x="843" d="M119 635q0 61 43.5 105t105.5 44h357q61 0 105 -44t44 -105q0 -62 -44 -106t-105 -44h-357q-61 0 -105 44t-44 106z" />
<glyph unicode="&#x2011;" horiz-adv-x="843" d="M119 635q0 61 43.5 105t105.5 44h357q61 0 105 -44t44 -105q0 -62 -44 -106t-105 -44h-357q-61 0 -105 44t-44 106z" />
<glyph unicode="&#x2012;" horiz-adv-x="843" d="M119 635q0 61 43.5 105t105.5 44h357q61 0 105 -44t44 -105q0 -62 -44 -106t-105 -44h-357q-61 0 -105 44t-44 106z" />
<glyph unicode="&#x2013;" horiz-adv-x="1087" d="M119 635q0 61 43.5 103t105.5 42h600q62 0 106 -42t44 -103t-44 -103.5t-106 -42.5h-600q-62 0 -105.5 42.5t-43.5 103.5z" />
<glyph unicode="&#x2014;" horiz-adv-x="1845" d="M119 635q0 61 43.5 103t105.5 42h1358q62 0 106 -42t44 -103t-44 -103.5t-106 -42.5h-1358q-62 0 -105.5 42.5t-43.5 103.5z" />
<glyph unicode="&#x2018;" horiz-adv-x="653" d="M238 1004l2 10q41 203 194 329q55 46 126 74.5t128 28.5q38 0 56 -19.5t18 -48.5q0 -55 -72 -71q-97 -20 -151.5 -69t-61.5 -124q55 -15 83 -55.5t15 -108.5l-2 -10q-15 -74 -67 -120t-123 -46q-90 0 -128.5 61t-16.5 169z" />
<glyph unicode="&#x2019;" horiz-adv-x="653" d="M145 842q0 55 72 71q97 20 151.5 69t61.5 124q-55 15 -83 55.5t-15 108.5l2 10q15 74 67 120t123 46q91 0 129.5 -61t16.5 -168l-2 -11q-41 -202 -195 -329q-55 -46 -126 -74.5t-128 -28.5q-38 0 -56 19.5t-18 48.5z" />
<glyph unicode="&#x201a;" horiz-adv-x="653" d="M-137 -264q0 55 71 71q97 20 151.5 69t61.5 124q-55 15 -83 55.5t-15 108.5l2 10q15 74 67.5 120t123.5 46q90 0 128.5 -60.5t16.5 -168.5l-2 -11q-41 -202 -195 -329q-56 -46 -126 -74.5t-127 -28.5q-38 0 -56 19.5t-18 48.5z" />
<glyph unicode="&#x201c;" horiz-adv-x="1173" d="M242 1001l2 11q41 203 194 329q55 46 126 74.5t128 28.5q38 0 56 -19.5t18 -48.5q0 -55 -72 -71q-97 -20 -151.5 -69t-61.5 -124q55 -15 83.5 -55.5t15.5 -108.5l-2 -10q-15 -74 -67.5 -120t-123.5 -46q-90 0 -128.5 60.5t-16.5 168.5zM762 1001l2 11q41 203 194 329 q55 46 126 74.5t128 28.5q38 0 56 -19.5t18 -48.5q0 -55 -72 -71q-97 -20 -151.5 -69t-61.5 -124q55 -15 83.5 -55.5t15.5 -108.5l-2 -10q-15 -74 -67.5 -120t-123.5 -46q-90 0 -128.5 60.5t-16.5 168.5z" />
<glyph unicode="&#x201d;" horiz-adv-x="1173" d="M145 842q0 55 72 71q97 20 151.5 69t61.5 124q-55 15 -83 55.5t-15 108.5l2 10q15 74 67 120t123 46q91 0 129.5 -61t16.5 -168l-2 -11q-41 -202 -195 -329q-55 -46 -126 -74.5t-128 -28.5q-38 0 -56 19.5t-18 48.5zM666 842q0 55 71 71q97 20 151.5 69t61.5 124 q-55 15 -83 55.5t-15 108.5l2 10q15 74 67 120t123 46q91 0 129.5 -61t16.5 -168l-2 -11q-41 -202 -195 -329q-55 -46 -126 -74.5t-128 -28.5q-38 0 -55.5 19t-17.5 49z" />
<glyph unicode="&#x201e;" horiz-adv-x="1173" d="M-137 -264q0 55 71 71q97 20 151.5 69t61.5 124q-55 15 -83 55.5t-15 108.5l2 10q15 74 67.5 120t123.5 46q90 0 128.5 -60.5t16.5 -168.5l-2 -11q-41 -202 -195 -329q-56 -46 -126 -74.5t-127 -28.5q-38 0 -56 19.5t-18 48.5zM383 -264q0 55 72 71q97 20 151.5 69 t61.5 124q-55 15 -83.5 55.5t-15.5 108.5l2 10q15 74 67.5 120t123.5 46q90 0 128.5 -60.5t16.5 -168.5l-2 -11q-41 -203 -194 -329q-55 -46 -126 -74.5t-128 -28.5q-38 0 -56 19.5t-18 48.5z" />
<glyph unicode="&#x2022;" d="M266 647q0 94 42 182.5t123 147.5t179 59q111 0 174.5 -64.5t63.5 -172.5q0 -94 -42 -182.5t-123 -147.5t-179 -59q-111 0 -174.5 64.5t-63.5 172.5z" />
<glyph unicode="&#x2026;" horiz-adv-x="1785" d="M43 154l2 12q13 75 69 120.5t134 45.5q79 0 122 -47t31 -119l-2 -12q-12 -74 -68 -120t-134 -46q-79 0 -122.5 47t-31.5 119zM614 154l2 12q13 75 69 120.5t134 45.5q79 0 122.5 -47t31.5 -119l-2 -12q-12 -74 -68.5 -120t-134.5 -46q-79 0 -122.5 47t-31.5 119z M1186 154l2 12q13 75 69 120.5t134 45.5q79 0 122 -47t31 -119l-2 -12q-12 -74 -68.5 -120t-134.5 -46q-79 0 -122 47t-31 119z" />
<glyph unicode="&#x202f;" horiz-adv-x="381" />
<glyph unicode="&#x2039;" horiz-adv-x="763" d="M109 506q0 46 41 84l346 342q65 61 118 61t85 -30t32 -82q0 -60 -43 -97l-299 -282l123 -234q20 -41 20 -80q0 -53 -38 -89t-93 -36q-47 0 -73.5 18.5t-46.5 57.5l-140 277q-1 3 -10 20.5t-12 24t-6.5 20t-3.5 25.5z" />
<glyph unicode="&#x203a;" horiz-adv-x="763" d="M27 197q0 59 43 96l299 282l-123 234q-21 43 -21 80q0 53 38 89t93 36q47 0 74 -18.5t47 -57.5l139 -276l10.5 -21l12 -24t7 -20.5t3.5 -25.5q0 -46 -41 -84l-346 -342q-65 -61 -119 -61q-53 0 -84.5 30.5t-31.5 82.5z" />
<glyph unicode="&#x205f;" horiz-adv-x="477" />
<glyph unicode="&#x20ac;" horiz-adv-x="1474" d="M63 547q0 43 31 73.5t74 30.5h90q9 72 27 140h-25q-43 0 -73.5 29.5t-30.5 72.5t30.5 73.5t73.5 30.5h86q93 209 267.5 335t402.5 126q171 0 279 -54.5t178 -154.5q43 -62 43 -112q0 -65 -45.5 -107.5t-114.5 -42.5q-77 0 -119 60q-17 25 -29 40t-33 33.5t-43.5 29 t-56.5 17.5t-76 7q-191 0 -301 -177h277q43 0 73.5 -30.5t30.5 -73.5t-30.5 -72.5t-73.5 -29.5h-354q-21 -60 -35 -140h297q43 0 73.5 -30.5t30.5 -73.5t-30.5 -73t-73.5 -30h-299q20 -90 82 -137t151 -47q136 0 240 96q42 39 98 39q63 0 106.5 -38.5t43.5 -98.5 q0 -65 -60 -117q-193 -166 -434 -166q-232 0 -380.5 126.5t-176.5 342.5h-86q-43 0 -74 30t-31 73z" />
<glyph unicode="&#x2122;" horiz-adv-x="1433" d="M236 1368q0 28 18.5 47t46.5 19h412q28 0 46.5 -19t18.5 -47q0 -26 -18.5 -43.5t-46.5 -17.5h-152l-119 -447q-9 -33 -31 -51t-51 -18q-35 0 -51 24t-6 66l115 426h-117q-28 0 -46.5 17.5t-18.5 43.5zM770 885l131 485q7 34 27.5 53t48.5 19h12q42 0 64 -53l100 -263 l225 271q39 45 82 45h13q34 0 48.5 -25t4.5 -67l-131 -486q-18 -69 -76 -69q-35 0 -50 24t-3 66l77 293l-159 -170q-32 -37 -74 -37q-43 0 -61 43l-64 166l-86 -316q-18 -69 -76 -69q-36 0 -50.5 24t-2.5 66z" />
<glyph unicode="&#x25fc;" horiz-adv-x="1116" d="M0 0v1116h1116v-1116h-1116z" />
<glyph unicode="&#xfb01;" horiz-adv-x="1460" d="M98 193l174 638q-45 7 -79.5 42t-34.5 92t37.5 95t91.5 38h55l14 59q91 352 445 352q57 0 94 -6q45 -8 73.5 -38.5t28.5 -80.5q0 -71 -42 -110.5t-95 -30.5q-32 4 -49 4q-120 0 -154 -119l-8 -30h111q54 0 91.5 -38t37.5 -95t-37.5 -95.5t-91.5 -38.5h-176l-187 -686 q-20 -75 -66 -116t-108 -41q-80 0 -115.5 55t-9.5 150zM899 193l205 759q20 75 66 116.5t108 41.5q80 0 115.5 -55t9.5 -150l-205 -760q-20 -75 -66 -116t-108 -41q-80 0 -115.5 55t-9.5 150zM1192 1352l2 10q13 65 69.5 104t131.5 39q74 0 117.5 -41t31.5 -102l-2 -10 q-13 -65 -69.5 -104.5t-131.5 -39.5q-74 0 -117.5 41.5t-31.5 102.5z" />
<glyph unicode="&#xfb02;" horiz-adv-x="1460" d="M98 193l174 638q-45 7 -79.5 42t-34.5 92t37.5 95t91.5 38h55l14 59q91 352 445 352q57 0 94 -6q45 -8 73.5 -38.5t28.5 -80.5q0 -71 -42 -110.5t-95 -30.5q-32 4 -49 4q-120 0 -154 -119l-8 -30h111q54 0 91.5 -38t37.5 -95t-37.5 -95.5t-91.5 -38.5h-176l-187 -686 q-20 -75 -66 -116t-108 -41q-80 0 -115.5 55t-9.5 150zM899 193l311 1157q20 75 66 116t108 41q80 0 115.5 -54.5t9.5 -149.5l-311 -1158q-20 -75 -66 -116t-108 -41q-80 0 -115.5 55t-9.5 150z" />
<glyph unicode="&#xfb03;" horiz-adv-x="2301" d="M98 193l174 638q-45 7 -79.5 42t-34.5 92t37.5 95t91.5 38h55l14 59q91 352 445 352q57 0 94 -6q45 -8 73.5 -38.5t28.5 -80.5q0 -71 -42 -110.5t-95 -30.5q-32 4 -49 4q-120 0 -154 -119l-8 -30h111q54 0 91.5 -38t37.5 -95t-37.5 -95.5t-91.5 -38.5h-176l-187 -686 q-20 -75 -66 -116t-108 -41q-80 0 -115.5 55t-9.5 150zM940 193l174 638q-45 7 -80 42t-35 92t37.5 95t91.5 38h56l14 59q91 352 444 352q58 0 95 -6q45 -8 73.5 -38.5t28.5 -80.5q0 -71 -42 -110.5t-95 -30.5q-32 4 -49 4q-120 0 -154 -119l-8 -30h111q54 0 91.5 -38 t37.5 -95t-37.5 -95.5t-91.5 -38.5h-177l-186 -686q-20 -75 -66 -116t-108 -41q-80 0 -115.5 55t-9.5 150zM1741 193l205 759q20 75 66 116.5t108 41.5q80 0 115.5 -55t9.5 -150l-205 -760q-20 -75 -66 -116t-108 -41q-80 0 -115.5 55t-9.5 150zM2034 1352l2 10 q13 65 69 104t131 39q74 0 118 -41t32 -102l-2 -10q-13 -65 -69.5 -104.5t-131.5 -39.5q-74 0 -117.5 41.5t-31.5 102.5z" />
<glyph unicode="&#xfb04;" horiz-adv-x="2301" d="M98 193l174 638q-45 7 -79.5 42t-34.5 92t37.5 95t91.5 38h55l14 59q91 352 445 352q57 0 94 -6q45 -8 73.5 -38.5t28.5 -80.5q0 -71 -42 -110.5t-95 -30.5q-32 4 -49 4q-120 0 -154 -119l-8 -30h111q54 0 91.5 -38t37.5 -95t-37.5 -95.5t-91.5 -38.5h-176l-187 -686 q-20 -75 -66 -116t-108 -41q-80 0 -115.5 55t-9.5 150zM940 193l174 638q-45 7 -80 42t-35 92t37.5 95t91.5 38h56l14 59q91 352 444 352q58 0 95 -6q45 -8 73.5 -38.5t28.5 -80.5q0 -71 -42 -110.5t-95 -30.5q-32 4 -49 4q-120 0 -154 -119l-8 -30h111q54 0 91.5 -38 t37.5 -95t-37.5 -95.5t-91.5 -38.5h-177l-186 -686q-20 -75 -66 -116t-108 -41q-80 0 -115.5 55t-9.5 150zM1741 193l311 1157q20 75 66 116t108 41q80 0 115.5 -54.5t9.5 -149.5l-311 -1158q-20 -75 -66 -116t-108 -41q-80 0 -115.5 55t-9.5 150z" />
</font>
</defs>
</svg>
